<svg xmlns="http://www.w3.org/2000/svg">
<defs>
<font id="DBHelvethaicaMonX-76BdIt" horiz-adv-x="0" >
  <font-face 
    font-family="DB HelvethaicaMon X 76 BdIt"
    font-weight="700"
    font-style="italic"
    font-stretch="normal"
    units-per-em="4096"
    panose-1="2 0 5 6 9 0 0 2 0 4"
    ascent="3276"
    descent="-820"
    x-height="1453"
    cap-height="2019"
    bbox="-1712.08 -1468 3942.76 3401"
    underline-thickness="82"
    underline-position="-627"
    unicode-range="U+0020-F882"
  />
<missing-glyph horiz-adv-x="1151" 
d="M1175 1114v-41h16q20 0 20 29q-1 3 -4 6q-6 6 -16 6h-16zM1183 1069h-8v-37h-13v94h29q15 0 24 -6t9 -18q0 -25 -8.5 -29t-20.5 -4l29 -37h-13zM1191 1020q17 0 28.5 5.5t19 13.5t10.5 17t3 17q0 34 -16.5 50t-44.5 16t-47 -16t-19 -50q0 -22 14.5 -37.5t51.5 -15.5z
M1191 1147q34 0 52 -20t18 -54q0 -22 -18 -41.5t-52 -19.5q-37 0 -55.5 19.5t-18.5 41.5q0 34 18.5 54t55.5 20zM560 881q27 -3 63.5 -7.5t76.5 -10.5t81.5 -13.5t78.5 -16.5t65.5 -19.5t44.5 -22.5q-29 54 -75 96.5t-101.5 72t-116.5 45t-121 15.5q-48 0 -94.5 -9
t-89 -27.5t-78.5 -46.5t-62 -65q50 4 101 6.5t100 2.5h127zM1048 1102v-397q-140 40 -311.5 69t-360.5 29q-133 0 -262 -12q12 61 48.5 117.5t93.5 99.5t132 68.5t164 25.5q86 0 155 -19.5t121.5 -48.5t88 -62t53.5 -59v189h78zM425 352q0 25 -15 35t-30 10q-25 0 -37 -10
t-12 -35q0 -41 49 -41q15 0 30 10t15 31zM89 389q0 63 25.5 112.5t67 83.5t94.5 52t108 18q57 0 108.5 -15.5t90 -47.5t61.5 -80.5t23 -114.5v-323h303v565h78v-635h-533v70h82v332q0 44 -16.5 76.5t-45 53.5t-66.5 31.5t-81 10.5t-83 -12t-70.5 -35.5t-49 -57t-18.5 -76.5
v-295l164 164q-6 1 -16.5 7.5t-20.5 17t-17.5 26t-7.5 35.5q0 53 31 82t84 29q23 0 43 -8.5t35 -23.5t24 -35.5t9 -43.5q0 -18 -5.5 -33.5t-13 -26.5t-16.5 -18t-15 -8q-2 -6 -14.5 -18.5t-31.5 -30.5t-42.5 -41t-46.5 -49q-31 -28 -64 -58.5t-67 -64.5h-90v385z" />
    <glyph glyph-name="plusminus" unicode="&#x2b;&#x2d;" horiz-adv-x="1667" 
d="M1036 1721q9 42 28 77t45.5 60.5t59.5 39.5t71 14t65 -14t43 -39.5t19.5 -60.5t-5.5 -77l-89 -421h416q87 0 130 -42t27 -116t-76.5 -116t-147.5 -42h-416l-90 -422q-9 -42 -27.5 -76.5t-45 -60t-59.5 -39.5t-71 -14t-65.5 14t-43 39.5t-19.5 60t5 76.5l90 422h-416
q-43 0 -75.5 13t-53 35t-28 50.5t-1.5 59.5q16 74 77 116t148 42h416zM1487 320q38 0 70 -8.5t53 -27t29 -49t-1 -74.5q-10 -45 -31 -75.5t-50.5 -49.5t-64.5 -27.5t-73 -8.5h-1172q-39 0 -71 8.5t-53 27.5t-29 49.5t2 75.5q9 44 30 74.5t50 49t64.5 27t74.5 8.5h1172z" />
    <glyph glyph-name="ellipsis" unicode="&#x2e;&#x2e;&#x2e;" horiz-adv-x="2777" 
d="M295 216q10 47 36.5 88t63.5 72t82 48.5t92 17.5t84.5 -17.5t61.5 -48.5t33 -72t-1 -88t-36.5 -88t-63.5 -72t-82 -48.5t-92 -17.5t-84.5 17.5t-61.5 48.5t-33 72t1 88zM1202 216q10 47 36.5 88t63.5 72t82 48.5t92 17.5t84.5 -17.5t61.5 -48.5t33 -72t-1 -88t-36.5 -88
t-63.5 -72t-82 -48.5t-92 -17.5t-84.5 17.5t-61.5 48.5t-33 72t1 88zM2116 216q10 47 36.5 88t63.5 72t82 48.5t92 17.5t84.5 -17.5t61.5 -48.5t33 -72t-1 -88t-36.5 -88t-63.5 -72t-82 -48.5t-92 -17.5t-84.5 17.5t-61.5 48.5t-33 72t1 88z" />
    <glyph glyph-name="lessequal" unicode="&#x3c;&#x3d;" horiz-adv-x="1794" 
d="M878 1182l784 -377q39 -18 64 -43.5t35 -55t4.5 -63t-28.5 -67.5q-30 -44 -63.5 -67t-71 -28.5t-78 4.5t-83.5 33l-999 509q-39 20 -58.5 62t-8.5 93t48 93t85 62l1215 508q49 21 96 33t85.5 7.5t64.5 -29t32 -76.5q8 -69 -32 -123.5t-134 -91.5zM1511 320q38 0 70 -8.5
t53 -27t29 -49t-1 -74.5q-10 -45 -31 -75.5t-50.5 -49.5t-64.5 -27.5t-73 -8.5h-1136q-39 0 -71 8.5t-53 27.5t-29 49.5t2 75.5q9 44 30 74.5t50 49t64.5 27t74.5 8.5h1136z" />
    <glyph glyph-name="greaterequal" unicode="&#x3e;&#x3d;" horiz-adv-x="1794" 
d="M1555 320q39 0 70.5 -8.5t52.5 -27t29 -49t-1 -74.5q-10 -45 -31 -75.5t-50 -49.5t-64 -27.5t-74 -8.5h-1136q-38 0 -70 8.5t-53 27.5t-29.5 49.5t1.5 75.5q9 44 30.5 74.5t50.5 49t64.5 27t73.5 8.5h1136zM622 1565q-78 37 -95 91.5t21 123.5q28 52 64.5 76.5t76.5 29
t82.5 -7.5t82.5 -33l999 -508q38 -20 57.5 -62t9.5 -93q-6 -26 -18.5 -49.5t-30.5 -44t-39.5 -36t-44.5 -25.5l-1215 -509q-53 -23 -97.5 -33t-80 -4.5t-59.5 28.5t-35 67q-9 34 -0.5 67.5t31.5 63t59 55t83 43.5l944 377z" />
    <glyph glyph-name="fongmanfunnuthai" unicode="&#xe4f;&#x22;" horiz-adv-x="2028" 
d="M308 836q26 122 81.5 234.5t134 210t177 178t209 137.5t231 88.5t243.5 31.5q121 0 226 -31.5t190.5 -88.5t148.5 -137.5t99 -178t43.5 -210t-18.5 -234.5t-81.5 -234.5t-133 -210.5t-174.5 -178.5t-206.5 -137.5t-228 -88.5t-239.5 -31.5q-123 0 -230 31.5t-193.5 88.5
t-151 137.5t-101.5 178.5t-44.5 210.5t18.5 234.5zM728 844q20 94 75 178t132.5 147.5t171 100.5t190.5 37q94 0 169.5 -37t124.5 -100.5t68 -147.5t-1 -178q-21 -97 -75.5 -182t-130.5 -148.5t-167 -100t-185 -36.5q-97 0 -175 36.5t-128.5 100t-70 148.5t1.5 182zM589 844
q-27 -125 -3 -236t89 -194t165.5 -132t228.5 -49q82 0 163 22t156.5 62.5t143 96.5t121.5 124t92 145.5t56 160.5q17 83 11.5 160t-30.5 144t-68.5 121.5t-102 94t-130.5 61t-154 21.5q-85 0 -168 -21.5t-159 -61t-143 -94t-121 -121.5t-92 -144t-55 -160zM978 844
q-10 -46 -2 -86.5t31.5 -70.5t60 -47t84.5 -17q43 0 85 17t76.5 47t59.5 70.5t35 86.5q9 43 0.5 81.5t-30.5 67.5t-56.5 46.5t-77.5 17.5q-48 0 -92 -17.5t-79.5 -46.5t-60.5 -67.5t-34 -81.5zM1577 2299q7 32 22.5 59.5t38 47t50.5 30.5t60 11q64 0 93 -41.5t15 -106.5
l-58 -274q-7 -32 -22.5 -59t-38 -46.5t-50.5 -30.5t-60 -11q-64 0 -93 41t-15 106zM1167 2299q7 32 22.5 59.5t38 47t51 30.5t60.5 11q64 0 93 -41.5t15 -106.5l-58 -274q-7 -32 -22.5 -59t-38 -46.5t-50.5 -30.5t-60 -11q-64 0 -93.5 41t-15.5 106z" />
    <glyph glyph-name="dochadaphinthuthai" unicode="&#xe0e;&#xe3a;" horiz-adv-x="1872" 
d="M1036 -963q11 54 42 102t74.5 83.5t95.5 56.5t106 21q52 0 94.5 -21t70 -56.5t38 -83.5t-0.5 -102q-11 -52 -42 -99t-73.5 -82t-94 -56t-103.5 -21q-54 0 -97 21t-71.5 56t-39 82t0.5 99zM1641 -350q-11 -52 -40.5 -97.5t-71 -79.5t-91.5 -54t-102 -20q-55 0 -98 22
t-69 60q-18 25 -43 47t-59.5 38.5t-80 26.5t-104.5 10q-65 0 -121.5 -13t-109.5 -36.5t-105 -57t-108 -73.5q-27 -20 -57.5 -28t-59 -5.5t-52 16t-38.5 37.5t-17 52.5t7 57t28 55t45 48.5q70 59 149 108.5t163 85.5t171 56t174 20q107 0 183 -23t128 -50l251 1179
q12 58 6 115.5t-39.5 103.5t-99 74.5t-170.5 30.5q-81 1 -147 -14.5t-116 -40.5t-83.5 -55t-50.5 -58q21 -23 35 -49t19.5 -59.5t2.5 -77t-15 -101.5l-157 -739q-7 -33 -24.5 -62.5t-42.5 -51.5t-55.5 -35t-63.5 -13h-300q-33 0 -58.5 13t-41 35t-20.5 51.5t2 62.5
t24.5 62.5t42 51.5t55.5 35t64 13h38l124 581q8 36 5 74.5t-25 75.5q-21 34 -32.5 58t-12 46t10 46.5t33.5 59.5q58 89 140 170.5t189 144t241 99.5t295 37q151 0 263 -27.5t190 -76t124.5 -116t67.5 -146.5t19 -167t-21 -179z" />
    <glyph glyph-name="topatakphintuthai" unicode="&#xe0f;&#xe3a;" horiz-adv-x="1872" 
d="M1036 -963q11 54 42 102t74.5 83.5t95.5 56.5t106 21q52 0 94.5 -21t70 -56.5t38 -83.5t-0.5 -102q-11 -52 -42 -99t-73.5 -82t-94 -56t-103.5 -21q-54 0 -97 21t-71.5 56t-39 82t0.5 99zM1635 -378q-11 -51 -39.5 -94t-69 -74.5t-89 -49.5t-99.5 -18q-54 0 -96.5 20
t-56.5 64q-8 24 -16.5 46t-20 38.5t-27.5 26t-38 9.5q-35 0 -66 -24.5t-53 -60.5q-16 -26 -38.5 -48t-49 -37.5t-55.5 -24.5t-59 -9q-60 0 -100.5 34.5t-49.5 88.5q-6 36 -24.5 60.5t-56.5 24.5q-39 0 -75 -26.5t-59 -64.5q-26 -41 -59.5 -67.5t-69.5 -39.5t-72.5 -12
t-69.5 16t-52 42t-24 60t4 70.5t32 73.5q43 68 96.5 117t113.5 81t125 47t132 15q48 0 88.5 -11t73.5 -29.5t59 -44t44 -54.5q27 27 61 51t71 42t76.5 28t77.5 10q56 0 94 -18.5t61 -43.5l254 1196q12 58 6 115.5t-39.5 103.5t-99 74.5t-170.5 30.5q-81 1 -147 -14.5
t-116 -40.5t-83.5 -55t-50.5 -58q21 -23 35 -49t19.5 -59.5t2.5 -77t-15 -101.5l-157 -739q-7 -33 -24.5 -62.5t-42.5 -51.5t-55.5 -35t-63.5 -13h-300q-33 0 -58.5 13t-41 35t-20.5 51.5t2 62.5t24.5 62.5t42 51.5t55.5 35t64 13h38l124 581q8 36 5 74.5t-25 75.5
q-21 34 -32.5 58t-12 46t10 46.5t33.5 59.5q58 89 140 170.5t189 144t241 99.5t295 37q151 0 263 -27.5t190 -76t124.5 -116t67.5 -146.5t19 -167t-21 -179z" />
    <glyph glyph-name="dochadasarauthai" unicode="&#xe0e;&#xe38;" horiz-adv-x="1872" 
d="M1442 -1287q-8 -39 -30 -72.5t-53 -57.5t-69 -37.5t-77 -13.5t-71 13.5t-52.5 37.5t-28.5 57.5t0 72.5l56 263h-78q-31 0 -54 12t-37.5 32.5t-19 47.5t2.5 58q6 31 22 58t39 47t51 32t59 12h319q31 0 54 -12t37.5 -32t19 -47t-1.5 -58zM1641 -350q-11 -52 -40.5 -97.5
t-71 -79.5t-91.5 -54t-102 -20q-55 0 -98 22t-69 60q-18 25 -43 47t-59.5 38.5t-80 26.5t-104.5 10q-65 0 -121.5 -13t-109.5 -36.5t-105 -57t-108 -73.5q-27 -20 -57.5 -28t-59 -5.5t-52 16t-38.5 37.5t-17 52.5t7 57t28 55t45 48.5q70 59 149 108.5t163 85.5t171 56
t174 20q107 0 183 -23t128 -50l251 1179q12 58 6 115.5t-39.5 103.5t-99 74.5t-170.5 30.5q-81 1 -147 -14.5t-116 -40.5t-83.5 -55t-50.5 -58q21 -23 35 -49t19.5 -59.5t2.5 -77t-15 -101.5l-157 -739q-7 -33 -24.5 -62.5t-42.5 -51.5t-55.5 -35t-63.5 -13h-300
q-33 0 -58.5 13t-41 35t-20.5 51.5t2 62.5t24.5 62.5t42 51.5t55.5 35t64 13h38l124 581q8 36 5 74.5t-25 75.5q-21 34 -32.5 58t-12 46t10 46.5t33.5 59.5q58 89 140 170.5t189 144t241 99.5t295 37q151 0 263 -27.5t190 -76t124.5 -116t67.5 -146.5t19 -167t-21 -179z" />
    <glyph glyph-name="topataksarauthai" unicode="&#xe0f;&#xe38;" horiz-adv-x="1872" 
d="M1442 -1287q-8 -39 -30 -72.5t-53 -57.5t-69 -37.5t-77 -13.5t-71 13.5t-52.5 37.5t-28.5 57.5t0 72.5l56 263h-78q-31 0 -54 12t-37.5 32.5t-19 47.5t2.5 58q6 31 22 58t39 47t51 32t59 12h319q31 0 54 -12t37.5 -32t19 -47t-1.5 -58zM1635 -378q-11 -51 -39.5 -94
t-69 -74.5t-89 -49.5t-99.5 -18q-54 0 -96.5 20t-56.5 64q-8 24 -16.5 46t-20 38.5t-27.5 26t-38 9.5q-35 0 -66 -24.5t-53 -60.5q-16 -26 -38.5 -48t-49 -37.5t-55.5 -24.5t-59 -9q-60 0 -100.5 34.5t-49.5 88.5q-6 36 -24.5 60.5t-56.5 24.5q-39 0 -75 -26.5t-59 -64.5
q-26 -41 -59.5 -67.5t-69.5 -39.5t-72.5 -12t-69.5 16t-52 42t-24 60t4 70.5t32 73.5q43 68 96.5 117t113.5 81t125 47t132 15q48 0 88.5 -11t73.5 -29.5t59 -44t44 -54.5q27 27 61 51t71 42t76.5 28t77.5 10q56 0 94 -18.5t61 -43.5l254 1196q12 58 6 115.5t-39.5 103.5
t-99 74.5t-170.5 30.5q-81 1 -147 -14.5t-116 -40.5t-83.5 -55t-50.5 -58q21 -23 35 -49t19.5 -59.5t2.5 -77t-15 -101.5l-157 -739q-7 -33 -24.5 -62.5t-42.5 -51.5t-55.5 -35t-63.5 -13h-300q-33 0 -58.5 13t-41 35t-20.5 51.5t2 62.5t24.5 62.5t42 51.5t55.5 35t64 13h38
l124 581q8 36 5 74.5t-25 75.5q-21 34 -32.5 58t-12 46t10 46.5t33.5 59.5q58 89 140 170.5t189 144t241 99.5t295 37q151 0 263 -27.5t190 -76t124.5 -116t67.5 -146.5t19 -167t-21 -179z" />
    <glyph glyph-name="dochadasarauuthai" unicode="&#xe0e;&#xe39;" horiz-adv-x="1872" 
d="M1144 -894q9 39 31.5 74t54 60.5t69.5 40.5t77 15t70.5 -15t52 -40.5t28 -60.5t-1.5 -74l-19 -93q-20 -94 -63 -177.5t-114 -146t-172 -99t-236 -36.5q-122 0 -204 29.5t-130 82t-63.5 125.5t-4.5 161l-31 1q-33 0 -58.5 12.5t-40.5 34.5t-20 51.5t2 62.5t24.5 62.5
t42 51.5t55 34.5t63.5 12.5h260q33 0 58.5 -12.5t40.5 -34.5t20 -51.5t-2 -62.5l-21 -101q-14 -65 4.5 -98t74.5 -33q105 0 134 131zM1641 -350q-11 -52 -40.5 -97.5t-71 -79.5t-91.5 -54t-102 -20q-55 0 -98 22t-69 60q-18 25 -43 47t-59.5 38.5t-80 26.5t-104.5 10
q-65 0 -121.5 -13t-109.5 -36.5t-105 -57t-108 -73.5q-27 -20 -57.5 -28t-59 -5.5t-52 16t-38.5 37.5t-17 52.5t7 57t28 55t45 48.5q70 59 149 108.5t163 85.5t171 56t174 20q107 0 183 -23t128 -50l251 1179q12 58 6 115.5t-39.5 103.5t-99 74.5t-170.5 30.5
q-81 1 -147 -14.5t-116 -40.5t-83.5 -55t-50.5 -58q21 -23 35 -49t19.5 -59.5t2.5 -77t-15 -101.5l-157 -739q-7 -33 -24.5 -62.5t-42.5 -51.5t-55.5 -35t-63.5 -13h-300q-33 0 -58.5 13t-41 35t-20.5 51.5t2 62.5t24.5 62.5t42 51.5t55.5 35t64 13h38l124 581q8 36 5 74.5
t-25 75.5q-21 34 -32.5 58t-12 46t10 46.5t33.5 59.5q58 89 140 170.5t189 144t241 99.5t295 37q151 0 263 -27.5t190 -76t124.5 -116t67.5 -146.5t19 -167t-21 -179z" />
    <glyph glyph-name="topataksarauuthai" unicode="&#xe0f;&#xe39;" horiz-adv-x="1872" 
d="M1144 -894q9 39 31.5 74t54 60.5t69.5 40.5t77 15t70.5 -15t52 -40.5t28 -60.5t-1.5 -74l-19 -93q-20 -94 -63 -177.5t-114 -146t-172 -99t-236 -36.5q-122 0 -204 29.5t-130 82t-63.5 125.5t-4.5 161l-31 1q-33 0 -58.5 12.5t-40.5 34.5t-20 51.5t2 62.5t24.5 62.5
t42 51.5t55 34.5t63.5 12.5h260q33 0 58.5 -12.5t40.5 -34.5t20 -51.5t-2 -62.5l-21 -101q-14 -65 4.5 -98t74.5 -33q105 0 134 131zM1635 -378q-11 -51 -39.5 -94t-69 -74.5t-89 -49.5t-99.5 -18q-54 0 -96.5 20t-56.5 64q-8 24 -16.5 46t-20 38.5t-27.5 26t-38 9.5
q-35 0 -66 -24.5t-53 -60.5q-16 -26 -38.5 -48t-49 -37.5t-55.5 -24.5t-59 -9q-60 0 -100.5 34.5t-49.5 88.5q-6 36 -24.5 60.5t-56.5 24.5q-39 0 -75 -26.5t-59 -64.5q-26 -41 -59.5 -67.5t-69.5 -39.5t-72.5 -12t-69.5 16t-52 42t-24 60t4 70.5t32 73.5q43 68 96.5 117
t113.5 81t125 47t132 15q48 0 88.5 -11t73.5 -29.5t59 -44t44 -54.5q27 27 61 51t71 42t76.5 28t77.5 10q56 0 94 -18.5t61 -43.5l254 1196q12 58 6 115.5t-39.5 103.5t-99 74.5t-170.5 30.5q-81 1 -147 -14.5t-116 -40.5t-83.5 -55t-50.5 -58q21 -23 35 -49t19.5 -59.5
t2.5 -77t-15 -101.5l-157 -739q-7 -33 -24.5 -62.5t-42.5 -51.5t-55.5 -35t-63.5 -13h-300q-33 0 -58.5 13t-41 35t-20.5 51.5t2 62.5t24.5 62.5t42 51.5t55.5 35t64 13h38l124 581q8 36 5 74.5t-25 75.5q-21 34 -32.5 58t-12 46t10 46.5t33.5 59.5q58 89 140 170.5t189 144
t241 99.5t295 37q151 0 263 -27.5t190 -76t124.5 -116t67.5 -146.5t19 -167t-21 -179z" />
    <glyph glyph-name=".notdef" horiz-adv-x="1151" 
d="M1175 1114v-41h16q20 0 20 29q-1 3 -4 6q-6 6 -16 6h-16zM1183 1069h-8v-37h-13v94h29q15 0 24 -6t9 -18q0 -25 -8.5 -29t-20.5 -4l29 -37h-13zM1191 1020q17 0 28.5 5.5t19 13.5t10.5 17t3 17q0 34 -16.5 50t-44.5 16t-47 -16t-19 -50q0 -22 14.5 -37.5t51.5 -15.5z
M1191 1147q34 0 52 -20t18 -54q0 -22 -18 -41.5t-52 -19.5q-37 0 -55.5 19.5t-18.5 41.5q0 34 18.5 54t55.5 20zM560 881q27 -3 63.5 -7.5t76.5 -10.5t81.5 -13.5t78.5 -16.5t65.5 -19.5t44.5 -22.5q-29 54 -75 96.5t-101.5 72t-116.5 45t-121 15.5q-48 0 -94.5 -9
t-89 -27.5t-78.5 -46.5t-62 -65q50 4 101 6.5t100 2.5h127zM1048 1102v-397q-140 40 -311.5 69t-360.5 29q-133 0 -262 -12q12 61 48.5 117.5t93.5 99.5t132 68.5t164 25.5q86 0 155 -19.5t121.5 -48.5t88 -62t53.5 -59v189h78zM425 352q0 25 -15 35t-30 10q-25 0 -37 -10
t-12 -35q0 -41 49 -41q15 0 30 10t15 31zM89 389q0 63 25.5 112.5t67 83.5t94.5 52t108 18q57 0 108.5 -15.5t90 -47.5t61.5 -80.5t23 -114.5v-323h303v565h78v-635h-533v70h82v332q0 44 -16.5 76.5t-45 53.5t-66.5 31.5t-81 10.5t-83 -12t-70.5 -35.5t-49 -57t-18.5 -76.5
v-295l164 164q-6 1 -16.5 7.5t-20.5 17t-17.5 26t-7.5 35.5q0 53 31 82t84 29q23 0 43 -8.5t35 -23.5t24 -35.5t9 -43.5q0 -18 -5.5 -33.5t-13 -26.5t-16.5 -18t-15 -8q-2 -6 -14.5 -18.5t-31.5 -30.5t-42.5 -41t-46.5 -49q-31 -28 -64 -58.5t-67 -64.5h-90v385z" />
    <glyph glyph-name=".null" 
 />
    <glyph glyph-name="nonmarkingreturn" horiz-adv-x="791" 
 />
    <glyph glyph-name="space" unicode=" " horiz-adv-x="696" 
 />
    <glyph glyph-name="exclam" unicode="!" horiz-adv-x="1126" 
d="M1077 1409l-246 -755q-10 -29 -25 -48.5t-34.5 -31t-42.5 -16t-49 -4.5q-27 0 -48 4.5t-35 16t-20.5 31t-4.5 48.5l75 755l84 395q22 105 89.5 157.5t170.5 52.5t147.5 -52.5t22.5 -157.5zM383 204q10 46 36 86.5t62.5 71t81 48t90.5 17.5t82.5 -17.5t60.5 -48t33.5 -71
t-0.5 -86.5t-36.5 -86.5t-63 -71t-81 -48t-90.5 -17.5t-83 17.5t-60.5 48t-32.5 71t1 86.5z" />
    <glyph glyph-name="quotedbl" unicode="&#x22;" horiz-adv-x="1266" 
d="M1106 1859q8 38 26.5 70t45 55.5t59.5 36.5t71 13q37 0 65 -13t44.5 -36.5t21.5 -55.5t-3 -70l-91 -428q-8 -38 -26.5 -70t-45 -55t-60 -36t-70.5 -13q-38 0 -65.5 13t-44 36t-21.5 55t3 70zM623 1859q8 38 26.5 70t45.5 55.5t60 36.5t71 13q37 0 65 -13t44.5 -36.5
t21.5 -55.5t-3 -70l-91 -428q-8 -38 -26.5 -70t-45 -55t-60 -36t-70.5 -13q-38 0 -65.5 13t-44.5 36t-22 55t3 70z" />
    <glyph glyph-name="numbersign" unicode="#" horiz-adv-x="1708" 
d="M698 1142h-108q-38 0 -62.5 11.5t-37 30t-15 42t2.5 47.5q5 25 17.5 48.5t33.5 42t50 30t67 11.5h149l150 422q11 30 26 56t37.5 45.5t53.5 30.5t74 11q27 0 49.5 -8t37.5 -22.5t21.5 -35.5t0.5 -47q-2 -12 -9 -34t-20 -61l-129 -357h255l150 422q11 30 26 56t37.5 45.5
t53.5 30.5t74 11q27 0 49.5 -8t37.5 -22.5t21.5 -35.5t0.5 -47q-2 -12 -9 -34t-20 -61l-128 -357h111q37 0 60.5 -11.5t36 -30t15 -42t-2.5 -48.5q-5 -24 -17.5 -47.5t-33 -42t-49 -30t-65.5 -11.5h-151l-115 -330h108q38 0 62 -11t37 -29.5t15.5 -42t-2.5 -47.5
q-5 -25 -18 -49t-33.5 -42.5t-49.5 -29.5t-67 -11h-149l-151 -423q-11 -30 -25.5 -56t-37 -45t-54 -30t-74.5 -11q-55 0 -87 30t-21 82q3 12 9.5 34.5t18.5 60.5l127 358h-252l-150 -423q-11 -30 -26 -56t-37.5 -45t-54 -30t-74.5 -11q-27 0 -49.5 8t-37.5 22.5t-21.5 35
t-0.5 46.5q3 12 10 34.5t19 60.5l128 358h-110q-37 0 -61 11t-36.5 29.5t-15 42.5t2.5 49q5 24 18 47.5t33.5 42t49 29.5t65.5 11h150zM1246 1142h-254l-116 -330h253z" />
    <glyph glyph-name="dollar" unicode="$" horiz-adv-x="1802" 
d="M994 850q-145 28 -253.5 77.5t-175.5 120.5t-90 164.5t2 211.5q31 144 106 253t178.5 183t227.5 113t253 44l35 164q4 19 16 36.5t27.5 31t34 21.5t35.5 8t32 -8t25 -21.5t14 -31t0 -36.5l-35 -164q53 -2 118.5 -14.5t131.5 -36.5t126.5 -59t104.5 -81t64 -103.5
t6 -126.5q-9 -41 -30 -74t-49.5 -55.5t-62 -34.5t-68.5 -12q-45 0 -71 22.5t-45.5 56.5t-38.5 73.5t-48.5 73.5t-76.5 57.5t-122 24.5l-114 -536q86 -20 165.5 -43.5t146.5 -57t119.5 -78.5t83.5 -108t38 -146t-16 -192q-30 -142 -100.5 -249.5t-173.5 -181.5t-235.5 -115
t-287.5 -50l-37 -175q-4 -18 -15.5 -35.5t-27 -31t-34 -21.5t-35.5 -8t-32 8t-25 21.5t-14.5 31t-0.5 35.5l37 175q-115 3 -205 27t-157.5 63t-112.5 90t-70.5 108t-31 116t6.5 115q18 86 73 132t134 46q57 0 87.5 -17t44.5 -44.5t18 -63t8.5 -73t15 -74t38.5 -66
t78.5 -48.5t134.5 -23zM1181 1728q-70 -2 -129 -22.5t-104 -53.5t-74 -75.5t-39 -88.5q-23 -106 34 -170t204 -95zM1053 259q62 4 124.5 21.5t115.5 51t91.5 84t53.5 121.5q15 72 -5 120t-60.5 80t-94.5 50.5t-106 31.5z" />
    <glyph glyph-name="percent" unicode="%" horiz-adv-x="2777" 
d="M504 1425q16 77 42 150.5t62.5 138.5t84.5 119.5t109 94t135 61.5t163 22q138 0 220.5 -46.5t121 -126t39 -185t-24.5 -223.5q-16 -75 -43 -147.5t-65 -137t-88 -119t-112 -94t-135.5 -62t-159.5 -22.5q-129 0 -209 44.5t-120 122.5t-43 183.5t23 226.5zM1737 557
q25 117 72 223.5t120.5 188t176.5 130t240 48.5q91 0 157 -21t110 -59.5t68.5 -92t33 -118t2.5 -138.5t-23 -153q-24 -114 -73 -219t-123 -185.5t-173.5 -128.5t-225.5 -48q-132 0 -214.5 45t-123.5 123t-45 182.5t21 222.5zM2167 1965q12 15 27 31t33.5 29t40.5 21.5
t46 8.5q28 0 49.5 -10.5t36 -27t20 -37.5t0.5 -43q-5 -23 -19 -49t-36 -55l-1332 -1799q-12 -15 -27 -31t-33.5 -29t-40 -21t-46.5 -8q-28 0 -49.5 10t-36 26.5t-20 37.5t-0.5 43q5 24 19 50t36 55zM804 1430q-7 -35 -13 -73.5t-7.5 -76t3 -71.5t17.5 -60t36.5 -41t60.5 -15
q58 0 100.5 32.5t72.5 82.5t49 109t30 113q7 34 13.5 72t8.5 75t-2.5 71.5t-18.5 60.5t-39.5 41.5t-66.5 15.5q-53 0 -94 -33.5t-70.5 -84t-49 -109t-30.5 -109.5zM2041 561q-7 -33 -12.5 -70t-7 -74t3.5 -71t18.5 -60t37.5 -41.5t62 -15.5q57 0 98.5 32t70.5 81.5t48 108.5
t31 114q11 51 18 110t-0.5 109.5t-33.5 84t-81 33.5q-39 0 -70.5 -15.5t-57 -42t-45.5 -60.5t-35.5 -72t-26.5 -77t-18 -74z" />
    <glyph glyph-name="ampersand" unicode="&#x26;" horiz-adv-x="1810" 
d="M1497 704q37 51 75.5 106t72.5 93q37 39 78 62t83 23q33 0 61.5 -12t49 -33.5t29.5 -50t2 -61.5q-8 -36 -35.5 -85t-67 -100t-86 -99.5t-90.5 -83.5l121 -199q28 -46 14 -110q-7 -32 -27.5 -63t-52 -55.5t-72.5 -39.5t-89 -15q-23 0 -40 6t-30.5 16.5t-24 24.5t-21.5 30
l-94 146q-80 -65 -162.5 -110.5t-167 -74t-172.5 -41.5t-180 -13q-107 0 -189 22t-141 61t-97.5 91.5t-57.5 113.5t-20.5 127t12.5 132q24 111 76.5 202.5t126 166.5t164 133.5t189.5 102.5q-28 42 -52.5 86t-40.5 91.5t-20.5 100.5t8.5 115q25 119 89 210.5t152 153.5
t193.5 94t214.5 32q107 0 186.5 -21t134 -57t87.5 -83.5t48.5 -101t15.5 -109t-11 -106.5q-17 -82 -58.5 -156t-100.5 -137.5t-132 -114.5t-154 -87zM996 1544q-11 -52 -5.5 -92t23.5 -73.5t44.5 -63.5t57.5 -62q38 20 82.5 45.5t85 59.5t72 78t43.5 102q8 37 -0.5 70
t-30.5 58t-56 39.5t-78 14.5t-83.5 -13.5t-71.5 -37.5t-53.5 -56t-29.5 -69zM886 896q-59 -33 -113.5 -67.5t-98.5 -75.5t-75.5 -91t-44.5 -114q-13 -61 3 -109.5t52 -82t87.5 -51.5t109.5 -18q109 0 198 39.5t168 120.5z" />
    <glyph glyph-name="quotesingle" unicode="'" horiz-adv-x="770" 
d="M613 1859q8 38 26.5 70t45.5 55.5t60 36.5t71 13q37 0 65 -13t44.5 -36.5t21.5 -55.5t-3 -70l-91 -428q-8 -38 -26.5 -70t-45 -55t-60 -36t-70.5 -13q-38 0 -65.5 13t-44.5 36t-22 55t3 70z" />
    <glyph glyph-name="parenleft" unicode="(" horiz-adv-x="922" 
d="M287 751q48 228 154 467t257 478q64 101 113.5 173.5t87.5 122t68 79t55.5 45t48.5 20.5t49 5q34 0 60 -11t42.5 -29.5t23 -43t0.5 -52.5q-8 -37 -42 -99.5t-83 -148.5t-107.5 -193.5t-116.5 -234.5t-109.5 -272t-85.5 -306t-44.5 -306t-6.5 -272t17 -234.5t25.5 -193.5
t20 -148.5t-0.5 -99.5q-6 -28 -23 -52.5t-41.5 -43t-55 -29.5t-64.5 -11q-26 0 -47 5t-40 20.5t-36 45t-34.5 78.5t-36 121.5t-39.5 173.5q-50 239 -53.5 478.5t44.5 467.5z" />
    <glyph glyph-name="parenright" unicode=")" horiz-adv-x="922" 
d="M953 751q-48 -228 -154 -467.5t-257 -478.5q-64 -101 -113.5 -173.5t-87.5 -121.5t-67.5 -78.5t-55 -45t-48.5 -20.5t-49 -5q-34 0 -60 11t-42.5 29.5t-22.5 43t0 52.5q7 37 41 99.5t82.5 148.5t107.5 193.5t116.5 234.5t109 272t85.5 306t44.5 306t6.5 272t-17 234.5
t-25.5 193.5t-19.5 148.5t1 99.5q6 28 22.5 52.5t41.5 43t55.5 29.5t64.5 11q26 0 47 -5t39.5 -20.5t35.5 -45t34.5 -79t35.5 -122t40 -173.5q50 -239 53.5 -478t-44.5 -467z" />
    <glyph glyph-name="asterisk" unicode="*" horiz-adv-x="1139" 
d="M869 1971q14 62 52 95t95 33t81 -33t10 -95l-50 -235l221 74q18 7 40.5 12t36.5 5q15 0 33.5 -7.5t33.5 -23.5t22.5 -40t0.5 -57q-18 -80 -124 -111q-62 -17 -123.5 -34t-122.5 -34l115 -207q9 -18 15 -38t1 -43q-8 -36 -28 -59.5t-43.5 -37t-46 -18.5t-34.5 -5
q-30 0 -53.5 12t-33.5 34q-26 56 -52 112.5t-52 112.5q-50 -57 -99 -112.5t-99 -112.5q-20 -22 -48.5 -34t-57.5 -12q-13 0 -33.5 5t-38.5 18.5t-28.5 37t-2.5 59.5q5 23 19.5 43t32.5 38l203 207l-218 68q-94 31 -76 111q7 33 24.5 57t39 40t43.5 23.5t37 7.5q14 0 34 -5
t35 -12l190 -73z" />
    <glyph glyph-name="plus" unicode="+" horiz-adv-x="1667" 
d="M962 1371q9 42 28 77t45.5 60.5t59.5 39.5t71 14t65 -14t43 -39.5t19.5 -60.5t-5.5 -77l-89 -419h416q43 0 76 -11t53.5 -32t28 -50.5t-0.5 -66.5q-16 -74 -77 -117t-148 -43h-416l-89 -420q-9 -42 -28 -76.5t-45.5 -60t-59.5 -39.5t-71 -14t-65 14t-43 39.5t-19.5 60
t5.5 76.5l89 420h-416q-43 0 -75.5 13.5t-53 36t-28 51t-0.5 59.5q16 74 77 117t148 43h416z" />
    <glyph glyph-name="comma" unicode="," horiz-adv-x="852" 
d="M226 204q10 46 36 86.5t63 71t81 48t90 17.5q66 0 111 -22t70 -62t29.5 -97t-10.5 -126q-15 -72 -39 -132t-54 -110t-65.5 -91.5t-74.5 -76.5q-26 -23 -61 -49t-73.5 -48t-76.5 -36t-69 -14q-45 0 -64 24.5t-12 56.5q6 28 29 48t56 39.5t72.5 41.5t78.5 54t73.5 78
t58.5 114q-42 -24 -98 -24q-47 0 -79.5 17.5t-51.5 46.5t-24 66.5t4 78.5z" />
    <glyph glyph-name="hyphen" unicode="-" horiz-adv-x="1338" 
d="M1273 952q38 0 70 -8.5t53 -27t29 -49t-1 -74.5q-9 -45 -30.5 -75.5t-50.5 -49.5t-64.5 -27.5t-73.5 -8.5h-805q-39 0 -71 8.5t-53 27.5t-28.5 49.5t1.5 75.5q9 44 30 74.5t50 49t64.5 27t74.5 8.5h805z" />
    <glyph glyph-name="period" unicode="." horiz-adv-x="852" 
d="M244 216q10 47 36.5 88t63.5 72t82 48.5t92 17.5t84.5 -17.5t61.5 -48.5t33 -72t-1 -88t-36.5 -88t-63.5 -72t-82 -48.5t-92 -17.5t-84.5 17.5t-61.5 48.5t-33 72t1 88z" />
    <glyph glyph-name="slash" unicode="/" horiz-adv-x="1114" 
d="M1176 1961q10 17 24.5 37.5t36.5 38t52.5 29t74.5 11.5q26 0 51.5 -10t44 -28.5t27 -45t1.5 -60.5q-5 -23 -17 -46.5t-26 -46.5l-1077 -1771q-11 -17 -25 -37t-36 -37.5t-53 -29t-74 -11.5q-26 0 -51 9.5t-43.5 28t-27.5 45t-2 60.5q5 23 17.5 46.5t26.5 46.5z" />
    <glyph glyph-name="zero" unicode="0" horiz-adv-x="1626" 
d="M298 979q23 106 54 222.5t79 228.5t116.5 213t164.5 177.5t224.5 121.5t296.5 45q127 0 220 -26t158 -72t104.5 -109t60 -137.5t24.5 -157.5t-3 -169t-21.5 -171.5t-31.5 -165.5q-24 -112 -56 -230.5t-80 -230.5t-116.5 -212.5t-165 -175.5t-225.5 -119t-298 -44
q-126 0 -218.5 25t-157 70t-104.5 107t-60 136t-24 157t3.5 170t22.5 175t33 172zM712 979q-13 -61 -26.5 -132.5t-20 -144t-2.5 -140t27 -119.5t68.5 -83.5t121.5 -31.5q77 0 136.5 31.5t105 83.5t79 119.5t58 140t41.5 144t30 132.5q12 59 25.5 130t19.5 142.5t1.5 138.5
t-28.5 118.5t-70 82.5t-123 31q-75 0 -133.5 -31t-103.5 -82.5t-78 -118.5t-57.5 -138.5t-41.5 -142.5t-29 -130z" />
    <glyph glyph-name="one" unicode="1" horiz-adv-x="1626" 
d="M983 1343q-60 -22 -115.5 -37.5t-104 -24.5t-88 -13t-66.5 -4q-68 0 -96 32t-10 116q8 37 24 64t43.5 46t67.5 32t95 23l105 22q79 16 132.5 49.5t93 74t70 83.5t62.5 78t71.5 57.5t97.5 22.5q33 0 60 -8t44 -29t22 -57t-7 -91l-333 -1565q-11 -53 -31 -97t-51 -75.5
t-73.5 -49t-99.5 -17.5t-92.5 17.5t-52.5 49t-18 75.5t10 97z" />
    <glyph glyph-name="two" unicode="2" horiz-adv-x="1626" 
d="M1427 352q38 0 68.5 -10t50 -31.5t26.5 -55t-3 -80.5q-20 -94 -82.5 -134.5t-155.5 -40.5h-1016q-59 0 -97 18.5t-58.5 48t-26 66.5t2.5 73q32 149 193.5 310.5t452.5 328.5q107 61 191 109t149 89t112.5 77.5t80.5 76t54 84t33 101.5q15 68 2 118t-45.5 83t-80.5 49
t-103 16q-65 0 -122.5 -15t-108.5 -49.5t-96.5 -91t-85.5 -140.5q-18 -39 -37 -68t-42.5 -48.5t-53.5 -29.5t-71 -10t-75 9.5t-56 31.5t-30 57.5t3 87.5q18 85 60.5 162.5t104 144.5t139 121t166 92t185 59t196.5 21q162 0 280 -48t190 -128.5t96.5 -185.5t0.5 -219
q-29 -134 -79 -229t-123.5 -168t-170 -132t-217.5 -122q-129 -67 -233 -122.5t-181.5 -103.5t-127.5 -90.5t-72 -81.5h813z" />
    <glyph glyph-name="three" unicode="3" horiz-adv-x="1626" 
d="M200 442q9 43 31.5 78.5t54 61t69.5 40t80 14.5q46 0 72.5 -14t42.5 -37.5t25 -53t19 -60.5t25.5 -60.5t43.5 -53t73.5 -37.5t115.5 -14q76 0 137.5 21t107 59t75.5 91t44 117q10 49 9 91.5t-20.5 75t-60.5 53.5t-110 29q-28 3 -65.5 8.5t-69.5 20.5t-50.5 43t-8.5 76
q12 54 34 88t56 54t80 29t105 12q104 6 163.5 62.5t79.5 152.5q13 62 1.5 106t-41 72.5t-74.5 41.5t-99 13q-80 0 -136 -22.5t-97 -56.5t-73 -73.5t-64.5 -73.5t-70.5 -56.5t-92 -22.5q-35 0 -65.5 8.5t-52 28t-30 51t1.5 78.5q18 84 61.5 152.5t104.5 121.5t134.5 92
t152 64.5t157.5 37.5t150 12q117 -1 206 -22t153 -58.5t104 -88t60 -110t21 -125t-13 -132.5q-29 -133 -107 -228t-206 -158q72 -22 118 -63t69.5 -97t25.5 -124.5t-14 -146.5q-35 -164 -119 -285t-201 -201t-259 -119.5t-293 -39.5q-128 0 -222 24.5t-160 65t-107 91.5
t-62 104t-24.5 103t4.5 89z" />
    <glyph glyph-name="four" unicode="4" horiz-adv-x="1626" 
d="M1205 1366h-6l-583 -602h461zM1006 430h-673q-53 0 -87.5 20.5t-53.5 51.5t-23.5 68t2.5 70q11 54 31.5 90.5t54.5 71.5l1069 1087q40 42 87.5 59.5t105.5 17.5q55 0 90.5 -14.5t54.5 -40.5t22.5 -62.5t-5.5 -80.5l-213 -1004h136q34 0 59.5 -13.5t40.5 -36t19 -53
t-3 -64.5t-24 -64.5t-42 -53t-56 -36t-65 -13.5h-136l-56 -263q-9 -43 -27 -78.5t-47 -60.5t-69.5 -39t-93.5 -14t-87 14t-52 39t-21 60.5t6 78.5z" />
    <glyph glyph-name="five" unicode="5" horiz-adv-x="1626" 
d="M613 1776q13 36 36 68.5t51.5 56.5t62 38.5t68.5 14.5h843q40 0 71.5 -10t52 -31.5t27 -55t-3.5 -81.5q-10 -47 -31 -80.5t-50 -55t-64 -31.5t-73 -10h-716l-166 -421l6 -6q90 66 199.5 98t217.5 32q132 0 244.5 -38.5t187.5 -117.5t104 -199t-5 -282
q-36 -170 -121.5 -300.5t-208 -219.5t-274.5 -134.5t-320 -45.5q-122 0 -214.5 19.5t-159.5 51.5t-111 73.5t-68 86t-30.5 88t1.5 80.5q9 42 31 78t54.5 61.5t73 40t85.5 14.5q43 0 69.5 -20t47 -50.5t41.5 -66t52 -66t78.5 -50.5t122.5 -20q80 0 153 30.5t131 81t98 115
t55 133.5q19 90 2.5 153.5t-59 104t-108 59t-144.5 18.5q-83 0 -145.5 -21.5t-114.5 -47t-99 -47t-100 -21.5q-76 0 -111.5 29t-43 76t7 107t38.5 123z" />
    <glyph glyph-name="six" unicode="6" horiz-adv-x="1626" 
d="M718 1095q54 43 107.5 76.5t110 56t118 34t130.5 11.5q153 0 261 -49t170.5 -133t80 -196t-9.5 -238q-36 -172 -118.5 -301.5t-196.5 -215.5t-252.5 -129.5t-287.5 -43.5q-145 0 -249.5 36t-174.5 99.5t-108.5 149t-52.5 185.5t-6 209.5t32 219.5q66 309 168 522.5
t237 346t299.5 191t355.5 58.5q121 0 214.5 -32.5t154.5 -84t87 -115.5t13 -128q-8 -38 -28.5 -70.5t-49 -57.5t-63 -39t-70.5 -14q-45 0 -73.5 18t-50 44.5t-40 57.5t-43.5 57.5t-61 44.5t-91 18q-106 0 -190 -48t-146.5 -125t-104 -173t-61.5 -192zM644 630
q-17 -80 -8 -144t41 -108.5t86 -68.5t128 -24t138 24t114 68.5t85.5 108.5t52.5 144q19 88 8.5 153t-44.5 107t-87.5 62.5t-120.5 20.5q-66 0 -129.5 -22.5t-116 -66.5t-91 -108t-56.5 -146z" />
    <glyph glyph-name="seven" unicode="7" horiz-adv-x="1626" 
d="M1752 1954q39 0 71 -9.5t52.5 -32.5t26.5 -62t-6 -98q-9 -42 -37 -80t-72 -82t-103 -99.5t-130.5 -133t-153.5 -181.5t-173 -245.5t-189 -325t-200 -420.5q-26 -62 -50 -104t-51.5 -68t-62.5 -37.5t-83 -11.5q-59 0 -93.5 16t-51 44.5t-17 67.5t9.5 84q11 52 42.5 127.5
t78.5 166t108 192.5t131.5 207t148 209.5t158 200t161.5 178t159 144.5h-856q-36 0 -65.5 10t-48.5 31t-25.5 54.5t3.5 80.5q10 48 30.5 81.5t49 54.5t63.5 31t74 10h1101z" />
    <glyph glyph-name="eight" unicode="8" horiz-adv-x="1626" 
d="M214 590q17 81 51.5 152.5t85.5 130.5t118 103t148 69q-52 28 -89.5 71.5t-59 96.5t-26 115t9.5 128q24 115 91 212.5t168 168t234 110.5t289 40t271.5 -40t187 -110.5t96.5 -168t1 -212.5q-14 -66 -44.5 -128t-74.5 -115t-100 -96.5t-120 -71.5q71 -25 119 -69t74 -103
t30 -130.5t-13 -152.5q-25 -118 -75 -210t-117.5 -161.5t-148.5 -118t-167.5 -78.5t-176 -43.5t-172.5 -13.5t-166 13.5t-157 43.5t-134.5 78.5t-98 118t-48.5 161.5t14 210zM608 587q-15 -72 -3 -128.5t47.5 -95.5t91.5 -59.5t128 -20.5t136.5 20.5t116 59.5t88 95.5
t51.5 128.5q10 45 5 100t-33 103.5t-83.5 81t-148.5 32.5q-92 0 -162 -32.5t-118.5 -81t-77 -103.5t-38.5 -100zM825 1428q-14 -66 -1.5 -114t45 -79.5t82 -47t110.5 -15.5t117 15.5t102 47t78.5 79.5t46.5 114q13 62 1 110t-44 80.5t-81.5 49.5t-110.5 17t-117.5 -17
t-102.5 -49.5t-79 -80.5t-46 -110z" />
    <glyph glyph-name="nine" unicode="9" horiz-adv-x="1626" 
d="M1330 856q-53 -43 -106.5 -76.5t-110 -56t-118 -34t-130.5 -11.5q-153 0 -261 49t-170.5 133t-80 196t9.5 238q36 172 118 301.5t196 215.5t252.5 129.5t287.5 43.5q145 0 249.5 -36t174.5 -99.5t109 -149t52.5 -185.5t5.5 -209.5t-31 -219.5q-66 -309 -168.5 -522.5
t-237.5 -346t-300 -191t-355 -58.5q-121 0 -214.5 32.5t-154 84t-87 115.5t-12.5 128q8 37 28 70t48.5 58t63 39t70.5 14q45 0 73.5 -18t50 -44.5t40 -57.5t43.5 -57.5t60.5 -44.5t91.5 -18q106 0 190 48t147 125t104 173t62 192zM1404 1321q17 80 8.5 144t-40.5 108.5
t-86 68.5t-128 24t-138 -24t-114.5 -68.5t-86 -108.5t-52.5 -144q-19 -89 -8.5 -153.5t44.5 -106.5t87.5 -62.5t120.5 -20.5q66 0 129.5 22.5t116 66.5t91.5 107.5t56 146.5z" />
    <glyph glyph-name="colon" unicode=":" horiz-adv-x="852" 
d="M462 1239q10 47 36.5 88t63.5 72t82 48.5t92 17.5t84.5 -17.5t61.5 -48.5t33 -72t-1 -88t-36.5 -88t-63.5 -72t-82 -48.5t-92 -17.5t-84.5 17.5t-61.5 48.5t-33 72t1 88zM244 216q10 47 36.5 88t63.5 72t82 48.5t92 17.5t84.5 -17.5t61.5 -48.5t33 -72t-1 -88t-36.5 -88
t-63.5 -72t-82 -48.5t-92 -17.5t-84.5 17.5t-61.5 48.5t-33 72t1 88z" />
    <glyph glyph-name="semicolon" unicode=";" horiz-adv-x="852" 
d="M462 1239q10 47 36.5 88t63.5 72t82 48.5t92 17.5t84.5 -17.5t61.5 -48.5t33 -72t-1 -88t-36.5 -88t-63.5 -72t-82 -48.5t-92 -17.5t-84.5 17.5t-61.5 48.5t-33 72t1 88zM226 204q10 46 36 86.5t63 71t81 48t90 17.5q66 0 111 -22t70 -62t29.5 -97t-10.5 -126
q-15 -72 -39 -132t-54 -110t-65.5 -91.5t-74.5 -76.5q-26 -23 -61 -49t-73.5 -48t-76.5 -36t-69 -14q-45 0 -64 24.5t-12 56.5q6 28 29 48t56 39.5t72.5 41.5t78.5 54t73.5 78t58.5 114q-42 -24 -98 -24q-47 0 -79.5 17.5t-51.5 46.5t-24 66.5t4 78.5z" />
    <glyph glyph-name="less" unicode="&#x3c;" horiz-adv-x="1794" 
d="M801 821l794 -384q39 -18 60 -38.5t29.5 -42t7.5 -44.5t-6 -46q-7 -33 -23.5 -60t-40.5 -46.5t-53.5 -30t-62.5 -10.5q-29 0 -62.5 6.5t-79.5 31.5l-999 509q-38 20 -58 62t-9 93t48 93t85 62l1215 508q56 25 92.5 32t65.5 7q33 0 58 -10.5t40.5 -30t21 -46.5t-1.5 -60
q-5 -24 -13.5 -47t-26.5 -44.5t-47.5 -42t-76.5 -38.5z" />
    <glyph glyph-name="equal" unicode="=" horiz-adv-x="1667" 
d="M1673 1231q87 0 129.5 -44.5t27.5 -118.5q-8 -37 -28 -67t-49.5 -51.5t-67.5 -33t-81 -11.5h-1158q-43 0 -75.5 14t-52.5 37t-27.5 52t-0.5 60q7 37 27 67t49.5 51.5t67.5 33t81 11.5h1158zM1555 675q43 0 76 -11.5t53 -33t27.5 -51.5t-0.5 -67t-28 -67t-49.5 -51.5
t-67 -33t-80.5 -11.5h-1158q-43 0 -75.5 14t-52.5 37t-27.5 52t-1.5 60q8 37 28 67t49.5 51.5t67.5 33t81 11.5h1158z" />
    <glyph glyph-name="greater" unicode="&#x3e;" horiz-adv-x="1794" 
d="M546 1204q-39 18 -59.5 38.5t-29 42t-7.5 44.5t6 47q7 33 23.5 60t40.5 46.5t53.5 30t62.5 10.5q29 0 62.5 -7t79.5 -32l999 -508q38 -20 58 -62t9 -93t-48 -93t-85 -62l-1215 -509q-56 -25 -93 -31.5t-65 -6.5q-33 0 -58 10.5t-40.5 30t-21 46.5t1.5 60q5 23 13.5 46
t26.5 44.5t47 42t76 38.5l958 384z" />
    <glyph glyph-name="question" unicode="?" horiz-adv-x="1656" 
d="M500 1530q14 68 52 133t93 122t124 105t146.5 82.5t160.5 54t166 19.5q87 0 168.5 -14t151.5 -43.5t125.5 -74.5t90 -107t44.5 -141.5t-11 -177.5q-19 -91 -65 -164t-106 -132.5t-127.5 -107.5t-130.5 -88t-115 -74.5t-80 -67.5q-22 -24 -38 -51t-31.5 -53t-32 -49.5
t-40 -41.5t-55 -28.5t-75.5 -10.5t-73 16.5t-44.5 43.5t-19 60.5t3.5 66.5q18 83 66.5 146.5t112.5 116.5t135 99t134 94t109 102t61 123q24 114 -31 177t-177 63q-65 0 -112.5 -16t-83 -41.5t-62 -59t-50 -68t-46 -67.5t-50 -58.5t-63.5 -41.5t-85 -16q-35 0 -65 11
t-49.5 32t-27 53t1.5 74zM617 210q10 47 36.5 88.5t63 73t81 49.5t90.5 18q45 0 81.5 -18t60.5 -49.5t32.5 -73t-1.5 -88.5t-36.5 -88.5t-63.5 -73t-81.5 -49.5t-89.5 -18q-46 0 -82.5 18t-60 49.5t-32 73t1.5 88.5z" />
    <glyph glyph-name="at" unicode="@" horiz-adv-x="2384" 
d="M1143 944q-12 -58 -5.5 -103t29 -76t59 -47t83.5 -16q58 0 111.5 23.5t97 64.5t75 97.5t45.5 121.5q11 52 7 95t-24 74t-55.5 48t-86.5 17q-59 0 -114.5 -24t-100.5 -65.5t-76.5 -95.5t-44.5 -114zM1848 846q-4 -9 -9.5 -22.5t-11 -27.5t-10 -27t-6.5 -21q-5 -25 3 -39.5
t37 -14.5q37 0 85 27.5t95 81t87.5 131.5t61.5 179q35 165 8.5 291.5t-104.5 212t-201 129.5t-280 44q-105 0 -207.5 -28t-197 -79t-178.5 -122.5t-151.5 -158.5t-115.5 -187.5t-71 -208.5q-39 -182 -9.5 -326t112.5 -244t214 -153.5t296 -53.5q102 0 181.5 13.5t141 33
t107.5 43t81 43t62 33t50 13.5q20 0 37 -8.5t28 -23t15.5 -34t0.5 -40.5q-8 -37 -48 -74.5t-101 -73t-138 -66.5t-158 -54t-161.5 -36.5t-149.5 -13.5q-147 0 -276 34t-234.5 98t-184.5 155t-124.5 204.5t-56 247t21.5 283.5q31 147 97 280.5t159.5 247.5t209.5 207t247 158
t273 100.5t288 35.5q130 0 246.5 -24.5t212.5 -73.5t168.5 -124t114.5 -175.5t50 -228t-25 -282.5q-29 -138 -88.5 -245t-136 -187t-163.5 -135t-171 -88.5t-158.5 -48.5t-126.5 -15q-158 0 -133 139h-5q-62 -57 -144 -88t-165 -31q-82 0 -147 37t-105.5 101.5t-53.5 152
t8 188.5q30 141 97.5 257t156.5 199t192.5 128.5t204.5 45.5q62 0 109.5 -10.5t83 -31.5t62 -52.5t46.5 -74.5l22 49q14 32 32.5 51t38.5 29.5t41 14t39 3.5q50 0 78.5 -30t16.5 -87q-3 -12 -9.5 -31t-18.5 -48z" />
    <glyph glyph-name="A" unicode="A" horiz-adv-x="1974" 
d="M1119 1866q45 75 105 105t143 30h106q38 0 72.5 -6t62 -23.5t46.5 -49t26 -83.5l226 -1490q3 -17 6 -38.5t4.5 -45t1.5 -46t-4 -40.5q-9 -41 -33.5 -76.5t-58.5 -62t-76 -41.5t-85 -15q-74 0 -119.5 28t-57.5 94l-45 324h-724l-186 -324q-37 -66 -91.5 -94t-135.5 -28
q-46 0 -81.5 13.5t-57.5 39t-29.5 61.5t2.5 81q4 18 13 40.5t20.5 46t24 45t22.5 38.5zM1317 1520h-5l-432 -781h526z" />
    <glyph glyph-name="B" unicode="B" horiz-adv-x="1946" 
d="M1242 1184q91 0 159 17t115.5 48t76 74.5t40.5 97.5q15 72 -2.5 117t-59 70t-101.5 34t-129 9h-373l-99 -467h373zM1195 348q71 0 129.5 20.5t103.5 56.5t74.5 85.5t41.5 107.5q14 66 -6.5 113t-63 76.5t-101 43t-121.5 13.5h-451l-110 -516h504zM1342 1999
q66 0 144 -1.5t154 -9t143 -24t111 -47.5q47 -32 87 -76t66 -100t34.5 -123.5t-8.5 -147.5q-14 -68 -43 -127.5t-68.5 -110t-88 -91.5t-102.5 -72q60 -32 106 -79.5t73 -107t34.5 -128.5t-8.5 -144q-16 -76 -52 -150.5t-90 -142.5t-124.5 -126t-156 -100.5t-184.5 -66.5
t-210 -24h-719q-53 0 -95.5 20.5t-70 55.5t-37.5 81.5t1 99.5l314 1475q12 55 43 103.5t74.5 85t96.5 57.5t108 21h468z" />
    <glyph glyph-name="C" unicode="C" horiz-adv-x="2004" 
d="M321 1002q30 141 86 273.5t135.5 248.5t182 213t226 166t266.5 107.5t304 38.5q130 0 235.5 -24.5t186 -65t138 -93.5t91.5 -111t45.5 -117t2.5 -110q-9 -48 -30.5 -86t-54 -65t-73.5 -41t-88 -14q-50 0 -82 15.5t-54.5 41t-38.5 57.5t-34 66t-41.5 66t-60 57.5t-89.5 41
t-131 15.5q-107 0 -213.5 -45t-198 -132t-161.5 -213.5t-105 -289.5q-29 -136 -24.5 -259t50.5 -216t138.5 -148t240.5 -55q90 0 159 27.5t124.5 68.5t101.5 90t89 91t87 71.5t95 32.5q45 3 80.5 -9t58.5 -35.5t33.5 -56.5t6.5 -73q-7 -71 -46.5 -141.5t-104.5 -134.5
t-150.5 -118.5t-184.5 -94.5t-208 -62.5t-219 -22.5q-234 0 -404.5 66.5t-270 198t-125.5 327t29 453.5z" />
    <glyph glyph-name="D" unicode="D" horiz-adv-x="1999" 
d="M550 1731q16 76 45.5 127t70.5 82t91.5 44t108.5 13h543q121 0 233 -19.5t205.5 -65.5t164 -121t110 -186t42.5 -261t-38 -345q-51 -238 -153.5 -423.5t-249.5 -313.5t-335.5 -195t-410.5 -67h-535q-58 0 -103 13t-72.5 44t-35.5 82t8 127zM689 350h386q88 0 163.5 26.5
t138 73t112.5 109.5t89 135t66 150t44 155q31 148 27.5 267.5t-44.5 203.5t-121.5 129.5t-201.5 45.5h-384z" />
    <glyph glyph-name="E" unicode="E" horiz-adv-x="1737" 
d="M794 848l-105 -492h885q37 0 66.5 -14t48.5 -38t26 -56.5t-1 -69.5t-28.5 -69.5t-50 -56.5t-64.5 -38t-72 -14h-1059q-53 0 -95.5 20.5t-70 55.5t-37.5 81.5t1 99.5l314 1475q12 55 43 103.5t74.5 85t96.5 57.5t108 21h1042q37 0 67 -14t49.5 -39t27 -58t-0.5 -70
q-8 -38 -29 -70.5t-51 -57t-66 -38.5t-73 -14h-878l-93 -438h809q36 0 65 -14t48 -38t26 -56t-1 -68t-28.5 -68t-49.5 -56t-64 -38t-71 -14h-809z" />
    <glyph glyph-name="F" unicode="F" horiz-adv-x="1634" 
d="M552 1732q12 55 43 103.5t74.5 85t96.5 57.5t108 21h976q37 0 67 -14t49.5 -39t27 -58t-0.5 -70q-8 -38 -29 -70.5t-51 -57t-66 -38.5t-73 -14h-812l-93 -438h691q36 0 65 -14t48 -38t26 -56t-1 -68t-28.5 -68t-49.5 -56t-64 -38t-71 -14h-691l-141 -663
q-9 -45 -34 -82.5t-60 -64.5t-77.5 -42.5t-87.5 -15.5t-80.5 15.5t-59 42.5t-32 64.5t0.5 82.5z" />
    <glyph glyph-name="G" unicode="G" horiz-adv-x="2150" 
d="M1978 123q-7 -31 -24 -58.5t-41.5 -48.5t-54.5 -33t-63 -12q-48 0 -76 15.5t-42 47t-16.5 80t1.5 114.5q-61 -61 -129 -110.5t-146 -84.5t-166.5 -54t-191.5 -19q-171 0 -299.5 38.5t-218.5 107.5t-144.5 165.5t-78 212.5t-18.5 247t35 271q54 252 168.5 447t276 327.5
t362 201t425.5 68.5q122 0 220 -23t173 -61.5t128 -88t84 -103t41.5 -106t1.5 -96.5q-13 -59 -40 -97.5t-62 -61t-73.5 -31.5t-73.5 -9q-41 0 -66.5 13.5t-43.5 35.5t-31.5 50t-30 57t-40 57t-61 50t-92.5 35.5t-136 13.5q-114 0 -222 -40t-199.5 -125.5t-162.5 -219.5
t-111 -323q-31 -147 -21.5 -268t60 -207t143.5 -133t228 -47q101 0 191 31t162.5 88t123.5 137t75 178h-288q-35 0 -68.5 8t-57.5 28.5t-35 54.5t0 85q17 84 71 130.5t138 46.5h544q97 0 128.5 -48.5t11.5 -142.5z" />
    <glyph glyph-name="H" unicode="H" horiz-adv-x="2048" 
d="M793 844l-140 -659q-9 -45 -34 -82.5t-60 -64.5t-77.5 -42.5t-87.5 -15.5t-80.5 15.5t-59 42.5t-32 64.5t0.5 82.5l346 1629q9 45 34 82.5t60 64.5t77.5 42.5t87.5 15.5t80.5 -15.5t59 -42.5t32 -64.5t-0.5 -82.5l-130 -610h820l130 610q9 45 34 82.5t60 64.5t77.5 42.5
t87.5 15.5t80.5 -15.5t59 -42.5t32 -64.5t-0.5 -82.5l-346 -1629q-9 -45 -34 -82.5t-60 -64.5t-77.5 -42.5t-87.5 -15.5t-80.5 15.5t-59 42.5t-32 64.5t0.5 82.5l140 659h-820z" />
    <glyph glyph-name="I" unicode="I" horiz-adv-x="852" 
d="M680 185q-9 -45 -34 -82.5t-60 -64.5t-77.5 -42.5t-87.5 -15.5t-80.5 15.5t-59 42.5t-32 64.5t0.5 82.5l346 1629q9 45 34 82.5t60 64.5t77.5 42.5t87.5 15.5t80.5 -15.5t59 -42.5t32 -64.5t-0.5 -82.5z" />
    <glyph glyph-name="J" unicode="J" horiz-adv-x="1528" 
d="M1475 616q-32 -152 -103 -273t-175 -205t-240 -129t-299 -45q-132 0 -225.5 27t-155.5 71.5t-97 102t-50 118t-13.5 119.5t11.5 107q13 61 37.5 111t58 85t76.5 54t93 19q59 0 93 -21.5t49 -57t14 -82t-12 -95.5q-20 -95 28 -146.5t166 -51.5q54 0 102.5 17t88 53
t69.5 92.5t47 135.5l249 1175q11 49 35 90t58.5 70t78.5 45t94 16t87.5 -16t60 -45t29.5 -70t-4 -90z" />
    <glyph glyph-name="K" unicode="K" horiz-adv-x="1892" 
d="M565 1798q10 49 34.5 90t60 70t79.5 45t95 16t88.5 -16t60 -45t29 -70t-3.5 -90l-142 -667l897 799q38 34 81 58.5t85.5 33t82.5 -3t72 -48.5q27 -31 33.5 -67.5t-3.5 -73.5t-35 -73t-61 -65l-584 -503l371 -832q20 -44 31.5 -88.5t6 -87.5t-32.5 -83t-83 -76
q-57 -36 -108 -45t-93.5 4t-75.5 45.5t-53 79.5l-340 780l-295 -243l-94 -440q-11 -50 -35 -90.5t-59 -69.5t-79 -45t-95 -16t-88.5 16t-60 45t-30 69.5t3.5 90.5z" />
    <glyph glyph-name="L" unicode="L" horiz-adv-x="1585" 
d="M566 1798q10 49 34 90t58.5 70t78 45t94.5 16t87.5 -16t58.5 -45t28 -70t-4 -90l-303 -1425h738q48 0 87 -12t65 -35.5t36.5 -58.5t0.5 -81q-10 -45 -35 -80t-61 -58.5t-80 -35.5t-92 -12h-914q-59 0 -104 13t-72.5 43t-35.5 79.5t8 123.5z" />
    <glyph glyph-name="M" unicode="M" horiz-adv-x="2482" 
d="M562 1778q15 67 46 110t72 67.5t88 33.5t94 9h97q55 0 93.5 -11t64.5 -35t40.5 -62.5t20.5 -94.5l181 -1251h7l708 1251q30 56 60.5 94.5t66.5 62.5t79 35t98 11h91q47 0 90.5 -9t74 -33.5t43.5 -67.5t-2 -110l-336 -1582q-9 -42 -28.5 -81t-51 -69.5t-74.5 -48.5
t-100 -18q-56 0 -91.5 18t-54 48.5t-21.5 69.5t6 81l213 1003l63 224l-88 -201l-649 -1114q-38 -69 -95.5 -99t-131.5 -30q-72 0 -117.5 30t-53.5 99l-174 1116l-2 205l-35 -231l-213 -1002q-9 -42 -28.5 -81t-50.5 -69.5t-74.5 -48.5t-99.5 -18q-57 0 -92.5 18t-54 48.5
t-21.5 69.5t6 81z" />
    <glyph glyph-name="N" unicode="N" horiz-adv-x="2060" 
d="M555 1751q29 139 109 202.5t219 63.5q68 0 119 -29.5t74 -91.5l509 -1261h9l248 1164q23 109 89 163.5t164 54.5q97 0 141 -55t22 -163l-327 -1540q-14 -66 -39.5 -118t-64.5 -87.5t-91.5 -54t-120.5 -18.5q-52 0 -87 6t-58.5 20t-39 37t-28.5 57l-513 1226h-8
l-241 -1132q-23 -109 -89 -161.5t-164 -52.5t-142 52.5t-21 161.5z" />
    <glyph glyph-name="O" unicode="O" horiz-adv-x="2154" 
d="M728 999q-18 -82 -21.5 -163t10 -154.5t44.5 -136.5t83 -109.5t126.5 -73t173.5 -26.5q101 0 188 26.5t160 73t131 109.5t103 136.5t75.5 154.5t48.5 163q17 82 21 163.5t-9.5 155.5t-44.5 138t-84 111t-129 73.5t-177 26.5q-99 0 -184.5 -26.5t-157.5 -73.5t-130 -111
t-102.5 -138t-76 -155.5t-48.5 -163.5zM294 999q29 136 84 266.5t134.5 246.5t183 213.5t228.5 168.5t271 110.5t312 39.5q167 0 297.5 -39.5t226.5 -110.5t159 -168.5t93.5 -213.5t30.5 -246.5t-29 -266.5t-84.5 -265.5t-135 -244.5t-183.5 -212t-229.5 -166.5t-273 -108.5
t-314.5 -39q-166 0 -295.5 39t-225 108.5t-157.5 166.5t-92 212t-30 244.5t29 265.5z" />
    <glyph glyph-name="P" unicode="P" horiz-adv-x="1843" 
d="M1239 1110q84 -2 150 16.5t113.5 53t77 83.5t42.5 109t4 109t-42 84t-90.5 54t-141.5 19h-390l-113 -528h390zM565 1795q9 45 34 82.5t60 64.5t77.5 42.5t87.5 15.5l690 -1q167 0 284 -42t184 -122.5t84.5 -197t-14.5 -265.5q-31 -147 -97.5 -261t-167 -191
t-234.5 -116.5t-301 -37.5h-476l-123 -581q-9 -45 -34 -82.5t-60 -64.5t-77.5 -42.5t-87.5 -15.5t-80.5 15.5t-59 42.5t-32 64.5t0.5 82.5z" />
    <glyph glyph-name="Q" unicode="Q" horiz-adv-x="2154" 
d="M1197 366q-25 24 -34 55.5t-4 65.5t23.5 68.5t48.5 64.5t65 48.5t70 23.5t67 -3.5t57 -32.5l134 -124q92 96 144.5 212.5t79.5 246.5q17 82 21 163.5t-9 155.5t-45 138t-84.5 111t-128.5 73.5t-177 26.5q-99 0 -184.5 -26.5t-157.5 -73.5t-130 -111t-102.5 -138
t-76 -155.5t-48.5 -163.5t-20.5 -163t9.5 -154.5t44 -136.5t83 -109.5t126.5 -73t173.5 -26.5q25 0 49 2t42 2zM1542 49q-112 -46 -230.5 -70t-248.5 -24q-166 0 -295.5 39t-225 108.5t-157.5 166t-92 211.5t-30 245t29 266q29 137 84.5 268t135 247t182.5 213.5t228 167.5
t271 109.5t312 39.5q167 0 297.5 -39.5t227 -109.5t159 -167.5t93.5 -213.5t30.5 -247t-29.5 -268q-21 -98 -56 -194t-83.5 -186t-109.5 -172t-134 -152l102 -102q25 -24 34 -55.5t4 -65.5t-23.5 -68.5t-48.5 -64.5t-65 -48.5t-69.5 -23.5t-67 3.5t-57.5 32.5z" />
    <glyph glyph-name="R" unicode="R" horiz-adv-x="1946" 
d="M556 1735q16 75 45 125.5t69 81.5t90 44t108 13h730q130 0 225 -23t159.5 -63t103 -93.5t55 -114.5t15.5 -126.5t-15 -129.5q-17 -81 -56 -158.5t-95 -142t-127.5 -111t-153.5 -65.5l-1 -6q81 -13 126 -54t62.5 -102.5t11 -140.5t-27.5 -167q-15 -63 -18 -113.5
t-1.5 -91.5t3 -75t-4.5 -65q-8 -39 -33 -72t-59 -56t-74 -36t-78 -13q-60 0 -98.5 18t-61.5 47t-32 65t-10.5 71.5t3 67t8.5 51.5q28 129 34.5 221.5t-15 151t-74.5 86t-143 27.5h-435l-124 -581q-11 -50 -34.5 -91.5t-58 -71t-78 -46t-93.5 -16.5t-87 16.5t-59.5 46
t-29.5 71t4 91.5zM861 1118h441q62 0 123.5 10.5t114.5 39.5t93 81t58 136q17 79 5 130.5t-47.5 81.5t-92 42t-128.5 12h-454z" />
    <glyph glyph-name="S" unicode="S" horiz-adv-x="1843" 
d="M1489 1158q145 -35 231 -96.5t127 -138.5t45 -164.5t-15 -175.5q-29 -135 -103 -250.5t-192.5 -200t-279.5 -132t-362 -47.5q-141 0 -252 22.5t-194 60.5t-139.5 88.5t-88.5 107t-41 115t3 112.5q9 41 30 75.5t51.5 59.5t67.5 39t78 14q45 0 74.5 -15.5t50.5 -41
t37.5 -58t36 -66t45.5 -66t67 -58t100 -41t144 -15.5q86 0 157.5 22.5t125 59.5t87.5 85t45 98q6 30 4.5 61t-17 59.5t-47.5 52t-86 38.5l-476 131q-143 40 -224 99.5t-117.5 131.5t-37 152t16.5 160q24 111 74 199.5t120 156.5t155 116t178.5 79t191 45.5t191.5 14.5
q87 0 174.5 -16.5t166.5 -47t145 -73t110 -94.5t61.5 -111.5t0.5 -124.5q-11 -42 -35 -75.5t-56 -57t-70.5 -35.5t-79.5 -12q-39 0 -64.5 13t-45.5 33.5t-36 47.5t-36 54.5t-46.5 54.5t-65.5 47.5t-94.5 33.5t-133.5 13q-77 0 -140.5 -17.5t-110.5 -48.5t-77.5 -74.5
t-41.5 -95.5t9 -87.5t58.5 -60t89.5 -40.5t101 -28z" />
    <glyph glyph-name="T" unicode="T" horiz-adv-x="1640" 
d="M941 1618h-403q-39 0 -69 15t-48.5 40.5t-24.5 60.5t3 74q8 39 29 74t50 61t65.5 41t75.5 15h1250q39 0 69 -15t48.5 -41t24.5 -61t-2 -74q-9 -39 -29.5 -74t-50 -60.5t-66 -40.5t-75.5 -15h-413l-304 -1431q-9 -45 -34.5 -83t-60.5 -65.5t-78 -43t-88 -15.5t-81 15.5
t-59.5 43t-32.5 65.5t0 83z" />
    <glyph glyph-name="U" unicode="U" horiz-adv-x="2073" 
d="M2043 750q-42 -197 -129 -344t-214 -244.5t-292 -146t-363 -48.5q-206 0 -357 45.5t-241.5 141.5t-117 244t17.5 352l225 1061q10 45 34.5 83t59.5 65.5t77.5 43t87.5 15.5t81 -15.5t59 -43t32 -65.5t-1 -83l-225 -1061q-44 -206 43 -314t302 -108q201 0 323.5 107
t167.5 315l225 1061q10 45 34.5 83t59.5 65.5t77.5 43t87.5 15.5t81 -15.5t59 -43t32 -65.5t-1 -83z" />
    <glyph glyph-name="V" unicode="V" horiz-adv-x="1782" 
d="M1180 130q-27 -48 -58.5 -78t-69 -47t-81 -23t-94.5 -6q-52 0 -92.5 6t-70.5 23t-48.5 47t-25.5 78l-214 1560q-9 62 1 121t42.5 104.5t87.5 73.5t135 28q90 0 132 -47t52 -147l112 -1350h6l702 1350q52 100 112 147t137 47q75 0 119 -26t59 -70t2 -104t-52 -127z" />
    <glyph glyph-name="W" unicode="W" horiz-adv-x="2536" 
d="M2132 189q-28 -57 -57.5 -97t-66 -65t-82.5 -36.5t-107 -11.5q-63 0 -104 13.5t-65.5 40.5t-35 68t-12.5 97l-37 1189h-6l-540 -1189q-26 -56 -54 -97t-64.5 -68t-83.5 -40.5t-110 -13.5q-61 0 -102 11.5t-67 36.5t-38 65t-15 97l-62 1501q-2 31 -2 63t7 64
q10 51 37 88.5t63 62t76.5 37t79.5 12.5q85 0 127 -41.5t43 -139.5l-12 -1284h6l565 1272q18 40 42 75.5t57.5 61.5t77.5 41t103 15q60 0 99 -13.5t62.5 -38.5t33.5 -61t11 -81l29 -1271h5l538 1284q41 98 99.5 139.5t138.5 41.5q38 0 73.5 -12.5t60.5 -37t36 -62t1 -88.5
q-7 -32 -21 -64t-28 -63z" />
    <glyph glyph-name="X" unicode="X" horiz-adv-x="1621" 
d="M773 1027l-326 652q-16 36 -18 76t9.5 78t34.5 72.5t56 60t75 41t91 15.5q39 0 67 -10.5t46.5 -26.5t30 -35t17.5 -36l241 -571l481 567q23 27 44.5 47.5t44.5 34t51 20t64 6.5q66 0 109.5 -29t59.5 -75t2 -103t-65 -112l-612 -672l322 -691q21 -47 26.5 -91.5t-7 -85
t-43.5 -76t-83 -64.5q-51 -28 -98.5 -36.5t-88 0.5t-70.5 35.5t-46 68.5l-241 602l-475 -581q-40 -48 -87 -79t-94 -42.5t-91 -3t-78 38.5t-43 69.5t0 83t33.5 87t58.5 82.5z" />
    <glyph glyph-name="Y" unicode="Y" horiz-adv-x="1729" 
d="M812 799l-371 901q-15 37 -15 75t13 73.5t37 66.5t57.5 54t74.5 36.5t87 13.5q40 0 68 -8t47.5 -24t33 -40.5t23.5 -56.5l255 -711l555 711q27 36 52 61t50.5 40t54 21.5t62.5 6.5q64 0 108 -28t61 -73.5t4.5 -102.5t-60.5 -115l-754 -901l-128 -603q-11 -50 -35 -90.5
t-59.5 -69.5t-79.5 -45t-95 -16t-88.5 16t-60 45t-29.5 69.5t4 90.5z" />
    <glyph glyph-name="Z" unicode="Z" horiz-adv-x="1805" 
d="M1499 1625h-793q-48 0 -87 12t-65 35.5t-36.5 58.5t-0.5 81q9 45 34.5 80t61.5 58.5t80 35.5t92 12h1167q42 0 77.5 -10t58.5 -33.5t30.5 -62.5t-4.5 -96q-8 -42 -33 -83.5t-63 -76.5l-1306 -1263h884q48 0 87 -12t65.5 -35.5t37 -58.5t0.5 -81q-10 -45 -35.5 -80
t-61.5 -58.5t-80 -35.5t-92 -12h-1202q-61 0 -106 11t-72.5 36.5t-36 67.5t4.5 104q11 53 41 93t68 77z" />
    <glyph glyph-name="bracketleft" unicode="[" horiz-adv-x="893" 
d="M503 -313h154q39 0 70 -8.5t50.5 -27.5t26.5 -49t-2 -72q-9 -43 -28.5 -73t-47.5 -48.5t-62.5 -27t-73.5 -8.5h-303q-45 0 -85.5 10t-67.5 37t-36.5 74.5t6.5 122.5l483 2271q16 75 46 122.5t68.5 74.5t83 37t89.5 10h303q39 0 70 -8.5t50.5 -27.5t26 -48.5t-2.5 -72.5
t-28.5 -73t-47 -48.5t-62 -27t-73.5 -8.5h-154z" />
    <glyph glyph-name="backslash" unicode="\" horiz-adv-x="1114" 
d="M451 1841q-5 23 -7 46.5t3 46.5q7 34 27 60.5t46.5 45t55.5 28t55 9.5q43 0 69 -11.5t40.5 -29t20.5 -37.5t10 -37l323 -1771q5 -23 7 -46.5t-3 -46.5q-7 -34 -27 -60.5t-46.5 -45t-56 -28.5t-55.5 -10q-44 0 -69.5 11.5t-40 29t-20.5 38t-9 37.5z" />
    <glyph glyph-name="bracketright" unicode="]" horiz-adv-x="893" 
d="M706 1818h-154q-39 0 -70 8.5t-50.5 27t-26.5 48.5t2 73q19 85 76 121t136 36h303q45 0 85.5 -10t67.5 -37t36.5 -74.5t-6.5 -122.5l-483 -2271q-16 -75 -46 -122.5t-68.5 -74.5t-83 -37t-89.5 -10h-303q-39 0 -69.5 8.5t-50 27t-26 48.5t2.5 73q9 42 28.5 72t46.5 49
t61.5 27.5t73.5 8.5h154z" />
    <glyph glyph-name="asciicircum" unicode="^" horiz-adv-x="1851" 
d="M1260 1574l-506 -666q-27 -35 -52.5 -57t-51.5 -34.5t-54.5 -17t-61.5 -4.5q-45 0 -71 10t-38.5 25t-14.5 33t1 34q7 30 22 59.5t42 65.5l666 872q28 37 54.5 61t52.5 37.5t52 18.5t54 5t52 -5t44 -18.5t36.5 -37.5t28.5 -61l294 -873q11 -36 13.5 -65.5t-3.5 -59.5
q-3 -16 -13 -34t-29.5 -33t-49.5 -25t-75 -10q-33 0 -59 4.5t-47 17t-37 34.5t-28 57z" />
    <glyph glyph-name="underscore" unicode="_" horiz-adv-x="1405" 
d="M40 -406q-28 0 -49 11t-33.5 29.5t-16 43.5t2.5 54q6 28 20.5 53t34.5 44t45.5 29.5t54.5 10.5h1151q28 0 49.5 -10.5t34 -29.5t16.5 -44t-2 -53q-6 -29 -21 -54t-35.5 -43.5t-46.5 -29.5t-54 -11h-1151z" />
    <glyph glyph-name="grave" unicode="`" horiz-adv-x="1004" 
d="M1103 1783q25 -45 21.5 -93t-29 -85.5t-68 -57t-94.5 -6.5l-19.5 6.5t-22 11.5t-24.5 22t-29 37l-152 218q-20 27 -32 57.5t-9.5 62t21 63.5t60.5 63q42 32 79.5 39t69.5 -5.5t58.5 -41.5t48.5 -68z" />
    <glyph glyph-name="a" unicode="a" horiz-adv-x="1556" 
d="M1492 363q-9 -43 -8 -71.5t7 -48.5t15.5 -33.5t18 -26.5t13.5 -27.5t3 -35.5q-4 -38 -24 -66.5t-49.5 -48t-65 -29.5t-71.5 -11q-74 -2 -124.5 13.5t-79.5 46t-37.5 75t1.5 100.5q-71 -65 -142.5 -110t-144.5 -73t-147.5 -40t-151.5 -12q-83 0 -156.5 28.5t-123.5 82
t-71.5 130t-1.5 172.5q27 126 87.5 209.5t146 136.5t190.5 80t220 41l245 27q36 4 68 12t58.5 24t46 43t28.5 71t-4 75.5t-43 52t-73 30t-92 9.5q-72 0 -126.5 -16.5t-97 -41t-76.5 -53.5t-65 -53.5t-63 -41t-71 -16.5q-37 0 -65 12.5t-45.5 34t-23.5 49.5t1 59
q13 60 67 124.5t144.5 118.5t213.5 88.5t274 34.5q141 0 252.5 -24t184 -74.5t102 -129.5t6.5 -188zM1170 683q-20 -15 -44 -26t-49 -18t-48.5 -11.5t-41.5 -7.5l-147 -23q-63 -9 -113 -24.5t-87 -39t-60 -56.5t-33 -79q-7 -35 1.5 -65t32 -53t61 -36t87.5 -13q80 0 149 25
t122.5 66t88.5 94t47 109z" />
    <glyph glyph-name="b" unicode="b" horiz-adv-x="1700" 
d="M531 1829q22 100 86 151t159 51q97 0 139 -51t20 -151l-116 -548h7q41 49 93 87t112.5 64t127.5 39.5t137 13.5q111 0 195.5 -28.5t145.5 -80t99 -121.5t55.5 -153.5t14.5 -177t-23 -190.5q-42 -196 -126.5 -340.5t-195 -240t-239.5 -142t-261 -46.5q-77 0 -142.5 15.5
t-116 47t-84 79.5t-45.5 112h-5l-14 -64q-20 -93 -78 -141.5t-151 -48.5q-98 0 -134 48.5t-16 141.5zM1371 721q10 48 14.5 100t-0.5 102.5t-21 96t-46.5 79.5t-78 54.5t-115.5 20.5q-97 1 -173.5 -40t-132.5 -106.5t-92.5 -146.5t-52.5 -160q-19 -87 -15.5 -167.5t34 -142
t89.5 -98.5t152 -37q86 2 158 38t128 96.5t94.5 140.5t57.5 170z" />
    <glyph glyph-name="c" unicode="c" horiz-adv-x="1488" 
d="M214 697q37 175 116.5 321t196.5 251t269.5 163.5t337.5 58.5q126 0 226 -33t166.5 -87t96.5 -123t15 -140q-9 -45 -31.5 -78.5t-53 -56t-67 -33.5t-75.5 -11q-31 0 -52.5 9t-36.5 23t-25.5 32.5t-19.5 37.5q-12 24 -26 48t-38.5 43.5t-62.5 31.5t-96 12t-122 -22
t-124 -76t-109.5 -144.5t-78.5 -226.5q-20 -94 -14.5 -170t36 -129.5t86.5 -82.5t136 -29q53 0 94.5 13t74.5 33.5t59 45.5t49 50q21 23 42 44t45.5 37.5t54 26.5t65.5 10q39 0 68 -13.5t47 -36t24.5 -51.5t-0.5 -60q-10 -44 -37 -93t-70.5 -96t-103.5 -89.5t-135 -74.5
t-165 -51t-193 -19q-185 0 -310 55t-194 153t-84 233t19 294z" />
    <glyph glyph-name="d" unicode="d" horiz-adv-x="1700" 
d="M1588 155q-20 -93 -76 -141.5t-154 -48.5q-93 0 -131 48.5t-18 141.5l14 64h-5q-39 -64 -93 -112t-118 -79.5t-136.5 -47t-148.5 -15.5q-132 0 -241 46.5t-179.5 142t-93 240t19.5 340.5q20 97 57 190.5t89.5 177t120.5 153.5t150.5 121.5t179.5 80t208 28.5
q141 0 241.5 -53t142.5 -151h7l116 548q22 100 85 151t160 51q95 0 138 -51t21 -151zM634 721q-19 -90 -14.5 -170t34.5 -140.5t86.5 -96.5t141.5 -38q93 0 167.5 37t131 98.5t94.5 142t57 167.5q16 79 14.5 160t-29.5 146.5t-87 106.5t-157 40q-68 0 -124 -20.5
t-101.5 -54.5t-80.5 -79.5t-61.5 -96t-44 -102.5t-27.5 -100z" />
    <glyph glyph-name="e" unicode="e" horiz-adv-x="1602" 
d="M1338 880q6 70 -9.5 129t-50 102t-86 67.5t-117.5 24.5q-73 0 -136.5 -23t-117 -65t-96.5 -101.5t-74 -133.5h687zM597 626q-14 -77 -1.5 -141t49 -110.5t96.5 -72.5t143 -26q74 0 128.5 15t96.5 37t74.5 48t63 48t62 37t71.5 15q36 0 62.5 -14t43 -36.5t22 -51
t-0.5 -56.5q-13 -61 -53 -111.5t-97 -90.5t-126 -69.5t-141.5 -49t-143 -29t-129.5 -9.5q-137 0 -239.5 30t-175.5 82.5t-117.5 123.5t-65.5 152.5t-20 170.5t20 178q38 177 119.5 323t198.5 249.5t266.5 160.5t323.5 57q113 0 204 -26t160 -72t116 -109t72.5 -137
t29.5 -156t-14 -165q-11 -52 -27.5 -89t-41 -60.5t-60 -34.5t-84.5 -11h-885z" />
    <glyph glyph-name="f" unicode="f" horiz-adv-x="877" 
d="M468 1191h-49q-84 0 -114 32.5t-16 98.5t58 99t128 33h49l38 183q20 95 71 167.5t121.5 121.5t154.5 74t170 25q54 0 99 -11t75.5 -34.5t43 -60t1.5 -86.5q-6 -28 -21.5 -53t-36.5 -44t-46.5 -30t-51.5 -11q-23 0 -42.5 4.5t-42.5 4.5q-42 0 -67 -26t-33 -68l-33 -156h75
q88 0 127 -30t23 -102q-15 -72 -66.5 -101.5t-139.5 -29.5h-75l-218 -1026q-11 -50 -33.5 -87t-54 -62.5t-71 -38t-84.5 -12.5t-79 12.5t-55 38t-27.5 62.5t4.5 87z" />
    <glyph glyph-name="g" unicode="g" horiz-adv-x="1667" 
d="M631 713q-15 -71 -12 -142.5t30 -128.5t81.5 -92.5t142.5 -35.5q68 0 132 24t118.5 74.5t96 129t65.5 188.5q24 113 20.5 194.5t-31 134.5t-78.5 78.5t-123 25.5q-99 0 -172.5 -34.5t-127 -94.5t-88 -142.5t-54.5 -178.5zM1541 90q-40 -187 -123 -324t-199.5 -227
t-259.5 -133.5t-303 -43.5q-117 0 -222.5 25.5t-182 71t-115.5 108.5t-23 138q8 38 28.5 70t48.5 55.5t61 36.5t67 13q42 0 71.5 -15.5t53.5 -39.5t47 -51t52 -51t68.5 -39.5t97.5 -15.5q93 0 165 25t126 79.5t92 140.5t64 208l18 86h-5q-36 -41 -86.5 -77t-108 -63
t-120.5 -42.5t-124 -15.5q-162 0 -274 50.5t-175.5 141.5t-78.5 218.5t18 280.5q43 201 126.5 349t192.5 245.5t236 145t256 47.5q150 0 248.5 -66t130.5 -181h7l11 52q20 95 77.5 145t148.5 50q95 0 129 -50t14 -145z" />
    <glyph glyph-name="h" unicode="h" horiz-adv-x="1647" 
d="M1541 161q-9 -42 -33 -75.5t-57 -57t-72 -36t-78 -12.5t-72.5 12.5t-56 36t-32 57t-0.5 75.5l140 658q19 91 19.5 158.5t-20.5 112.5t-64.5 67.5t-112.5 22.5q-80 0 -143 -24t-111.5 -74.5t-83 -129.5t-58.5 -190l-127 -601q-9 -43 -33.5 -76.5t-57.5 -57t-72 -35.5
t-78 -12t-72.5 13t-56 36.5t-32 57t-0.5 74.5l358 1687q9 39 30.5 71t52 54t68 34t76.5 12t71.5 -12t53.5 -34t29.5 -54t-0.5 -71l-118 -558h8q61 61 121.5 101t121 63t121 32t122.5 9q160 0 254 -43.5t137 -122.5t42.5 -190t-29.5 -246z" />
    <glyph glyph-name="i" unicode="i" horiz-adv-x="688" 
d="M581 171q-9 -42 -32.5 -77t-56 -60.5t-72 -39.5t-81.5 -14t-75.5 14t-55 39.5t-30 60.5t0.5 77l239 1123q9 42 31.5 75.5t55 57t71.5 36t81 12.5t75.5 -12.5t56 -36t31.5 -57t0 -75.5zM528 1814q9 42 32.5 78.5t56.5 63.5t73 43t82 16t75 -16t54.5 -43t29.5 -63.5
t-1 -78.5t-32.5 -78.5t-56.5 -63.5t-73 -43t-82 -16t-75 16t-54.5 43t-29.5 63.5t1 78.5z" />
    <glyph glyph-name="j" unicode="j" horiz-adv-x="729" 
d="M458 1279q9 40 26 76.5t45.5 64t70.5 44t101 16.5q58 0 93.5 -16.5t52.5 -44t18.5 -64t-7.5 -76.5l-309 -1457q-23 -108 -62 -188.5t-99 -133t-143 -78.5t-195 -26q-115 0 -160.5 43t-26.5 130q16 76 56.5 108t103.5 32h45q28 0 47 21t25 50zM568 1814q9 42 32.5 78.5
t56.5 63.5t73 43t82 16t75 -16t54.5 -43t29.5 -63.5t-1 -78.5t-32.5 -78.5t-56.5 -63.5t-73 -43t-82 -16t-75 16t-54.5 43t-29.5 63.5t1 78.5z" />
    <glyph glyph-name="k" unicode="k" horiz-adv-x="1470" 
d="M531 1827q10 49 32.5 87t54 63t70.5 38t84 13q90 0 133.5 -51t22.5 -150l-194 -914l546 496q37 32 80 54.5t88 22.5q34 0 64.5 -14t52 -38.5t31.5 -58t2 -71.5q-6 -27 -14 -45.5t-19.5 -33t-25 -27t-29.5 -26.5l-361 -312l294 -560q4 -7 8.5 -19t7.5 -28.5t3 -37
t-5 -45.5q-8 -38 -30 -73.5t-53 -62.5t-69 -43t-78 -16q-36 0 -62.5 8.5t-45.5 22t-31 30t-20 32.5l-261 537l-172 -154l-58 -276q-21 -98 -86.5 -149t-155.5 -51t-133 50.5t-22 149.5z" />
    <glyph glyph-name="l" unicode="l" horiz-adv-x="725" 
d="M600 171q-9 -42 -32.5 -77t-56 -60.5t-72 -39.5t-81.5 -14t-75.5 14t-55 39.5t-30 60.5t0.5 77l354 1668q9 42 32 75.5t55.5 57t71.5 36t81 12.5t75.5 -12.5t56 -36t31 -57t-0.5 -75.5z" />
    <glyph glyph-name="m" unicode="m" horiz-adv-x="2507" 
d="M414 1282q10 45 30.5 82.5t50.5 63.5t67.5 40.5t81.5 14.5q88 0 126 -55t19 -146l-11 -52h6q51 60 112.5 107t129.5 79.5t141.5 49.5t148.5 17q51 0 105 -13t101 -42.5t82 -78t47 -119.5q54 59 111 106t119.5 79.5t132.5 50t151 17.5q103 0 190.5 -25.5t145.5 -83
t79.5 -150.5t-7.5 -228l-173 -817q-9 -40 -26 -76.5t-45.5 -64t-70.5 -43.5t-100 -16t-93 16t-51.5 43.5t-18 64t7.5 76.5l153 721q11 54 6.5 101.5t-26.5 83.5t-61.5 57t-97.5 21q-57 0 -113 -24t-103.5 -66.5t-82.5 -101.5t-50 -129l-140 -663q-9 -40 -26 -76.5t-45.5 -64
t-70.5 -43.5t-100 -16t-93 16t-51.5 43.5t-18 64t7.5 76.5l153 721q11 54 8 101.5t-23.5 83.5t-58.5 57t-96 21q-57 0 -114.5 -24t-106 -66.5t-85 -101.5t-51.5 -129l-140 -663q-9 -40 -26 -76.5t-45.5 -64t-70.5 -43.5t-100 -16t-93 16t-51.5 43.5t-18 64t7.5 76.5z" />
    <glyph glyph-name="n" unicode="n" horiz-adv-x="1651" 
d="M419 1295q19 90 73 144.5t148 54.5q47 0 78 -14t47.5 -40.5t19 -63t-6.5 -81.5l-11 -51q55 55 116 101t128.5 79t143 51.5t160.5 18.5q60 0 118.5 -11t110 -35.5t92.5 -64t65 -97.5t28.5 -136t-16.5 -178l-169 -794q-8 -40 -25 -76t-45.5 -63t-70 -43t-99.5 -16t-93 16
t-52 43t-18.5 63t6.5 76l152 715q13 60 7.5 110.5t-30.5 87t-69 57t-108 20.5q-52 0 -111.5 -21t-113.5 -61t-95 -98.5t-57 -132.5l-144 -677q-8 -40 -25 -76t-45.5 -63t-70.5 -43t-100 -16t-93 16t-51.5 43t-18 63t6.5 76z" />
    <glyph glyph-name="o" unicode="o" horiz-adv-x="1647" 
d="M228 725q37 174 120 315t202 241.5t269 155t320 54.5q172 0 300 -54.5t205 -155t100.5 -241.5t-13.5 -315t-120.5 -315t-203 -241.5t-270.5 -155t-323 -54.5q-170 0 -297 54.5t-203.5 155t-99.5 241.5t14 315zM629 725q-19 -87 -20 -169t25.5 -145.5t85.5 -102t160 -38.5
q103 0 180 38.5t131.5 102t89 145.5t53.5 169q12 58 16.5 114.5t-1.5 107t-24 93.5t-51 74t-82.5 48.5t-118.5 17.5q-101 0 -176.5 -38.5t-128.5 -102t-87 -145.5t-52 -169z" />
    <glyph glyph-name="p" unicode="p" horiz-adv-x="1700" 
d="M418 1298q20 93 76.5 141.5t154.5 48.5q93 0 130.5 -48.5t17.5 -141.5l-13 -64h5q39 64 93 112t118 79.5t136 47t149 15.5q132 0 241 -46.5t179 -142t93 -240t-19 -340.5q-21 -97 -57.5 -190.5t-89 -177t-120.5 -153.5t-150.5 -121.5t-179.5 -80t-208 -28.5
q-141 0 -242 53t-142 151h-7l-116 -548q-22 -100 -85 -151t-160 -51q-95 0 -138 51t-21 151zM1373 732q19 90 14.5 170t-34.5 140.5t-86.5 96.5t-141.5 38q-93 0 -167.5 -37t-131 -98.5t-94.5 -142t-57 -167.5q-11 -53 -14.5 -107t3.5 -104.5t25.5 -95t51 -77t80.5 -51.5
t113 -18q68 0 124 20.5t101.5 54.5t80.5 79.5t61 96t44 102.5t28 100z" />
    <glyph glyph-name="q" unicode="q" horiz-adv-x="1700" 
d="M1477 -376q-22 -100 -86 -151t-159 -51q-97 0 -139 51t-20 151l116 548h-7q-83 -98 -206 -151t-264 -53q-111 0 -195.5 28.5t-145.5 80t-99 121.5t-55.5 153.5t-15 177t23.5 190.5q42 196 126 340.5t195 240t240 142t261 46.5q76 0 142 -15.5t116.5 -47t84 -79.5
t45.5 -112h5l13 64q20 93 78.5 141.5t151.5 48.5q98 0 133.5 -48.5t15.5 -141.5zM637 732q-10 -48 -14.5 -100t0 -102.5t21 -96t47 -79.5t78 -54.5t115.5 -20.5q97 -1 173.5 40t132.5 106.5t92 146.5t53 160q19 87 15.5 167.5t-34 142t-89.5 98.5t-152 37q-86 -2 -158 -38
t-128 -96.5t-94.5 -140.5t-57.5 -170z" />
    <glyph glyph-name="r" unicode="r" horiz-adv-x="1049" 
d="M417 1288q10 45 31 79.5t50.5 58t64.5 35.5t73 12t68 -12t49.5 -35.5t26 -58t-3.5 -79.5l-30 -142h5q30 62 69 121t88.5 104.5t109.5 73.5t132 28q47 0 83.5 -14.5t60.5 -40.5t33 -61t0 -77q-12 -55 -37 -93t-57.5 -61.5t-70 -34t-74.5 -10.5h-47q-60 0 -114.5 -22.5
t-101 -74t-84.5 -136t-64 -207.5l-100 -468q-8 -40 -25 -76t-45.5 -63t-70.5 -43t-100 -16t-93 16t-51.5 43t-18 63t6.5 76z" />
    <glyph glyph-name="s" unicode="s" horiz-adv-x="1479" 
d="M320 1037q17 82 56.5 147t94.5 114.5t122 85t140 58t147.5 33t145.5 10.5q77 0 151.5 -10t139.5 -28.5t118 -45t89 -60.5t52 -74.5t6 -86.5q-7 -35 -25 -67t-45 -56t-61.5 -38.5t-74.5 -14.5t-67.5 13.5t-50.5 34t-45 44.5t-51.5 44.5t-69.5 34t-98 13.5
q-108 0 -177.5 -30t-83.5 -94q-8 -35 3.5 -58t37 -38.5t63 -26t82.5 -20.5l163 -39q55 -13 111.5 -30t107.5 -41.5t94 -57t71 -76t37.5 -99t-5.5 -125.5q-18 -82 -57 -149t-94.5 -120t-124 -92.5t-143.5 -65.5t-154 -38.5t-156 -12.5q-138 0 -254.5 28.5t-198 77.5
t-121.5 114.5t-24 139.5q7 33 23 63.5t41 53.5t59 37t77 14q44 0 74 -18.5t56 -46t51.5 -59.5t60 -59.5t82 -46t117.5 -18.5q55 0 101 11.5t81 31t57 46t29 57.5q8 38 -2.5 65t-36.5 47t-66.5 34.5t-91.5 28.5l-228 57q-84 22 -155 49.5t-118 72.5t-65 113t3 169z" />
    <glyph glyph-name="t" unicode="t" horiz-adv-x="918" 
d="M480 1192h-68q-84 0 -114 32.5t-16 98.5t58 98.5t128 32.5h68l53 250q10 49 32 86t53.5 62t71 37.5t84.5 12.5q90 0 133 -50t23 -148l-53 -250h120q88 0 127 -29.5t24 -101.5t-67 -101.5t-140 -29.5h-120l-173 -815q-20 -92 84 -92h57q66 0 95 -35t15 -99
q-19 -86 -100.5 -131t-225.5 -45q-108 0 -180.5 22t-112.5 66.5t-49.5 110.5t9.5 154z" />
    <glyph glyph-name="u" unicode="u" horiz-adv-x="1675" 
d="M1552 159q-19 -90 -73 -144.5t-148 -54.5q-47 0 -78 14t-47.5 40.5t-19 63t6.5 81.5l11 51q-56 -55 -116.5 -101t-128 -79t-143 -51.5t-160.5 -18.5q-60 0 -118.5 11t-110 35t-92 64t-65 98t-29 135.5t16.5 178.5l169 794q8 40 25 76t45.5 63t70 43t99.5 16t93.5 -16
t52.5 -43t19 -63t-6 -76l-152 -715q-13 -60 -7.5 -110.5t29.5 -87t68 -57t108 -20.5q52 0 111.5 21t113 61t94.5 98.5t57 132.5l144 677q8 40 25 76t46 63t71 43t100 16t93 -16t51.5 -43t18 -63t-6.5 -76z" />
    <glyph glyph-name="v" unicode="v" horiz-adv-x="1373" 
d="M296 1190q-8 60 7 112.5t47.5 91.5t79.5 61.5t103 22.5t88.5 -20t48.5 -47.5t20.5 -55.5t5.5 -43l73 -908h6l459 908q7 15 24 43t45 55.5t69 47.5t97 20t93.5 -23t53 -62.5t7.5 -92.5t-42 -113l-598 -1054q-23 -40 -45 -70t-54.5 -50t-80 -30t-122.5 -10t-118.5 10.5
t-67 31t-32.5 50.5t-15 70z" />
    <glyph glyph-name="w" unicode="w" horiz-adv-x="2098" 
d="M295 1180q-5 55 7.5 107t40.5 93t71 67t99 31q50 4 83 -9.5t53 -40t29 -63.5t10 -80l29 -851h5l340 790q25 58 51 105.5t60 80.5t79.5 51t110.5 17q70 -1 110.5 -18.5t60.5 -50t25.5 -79.5t6.5 -106l8 -790h5l377 851q18 43 40.5 79.5t52.5 63t68.5 40t88.5 10.5
q58 -4 92 -29.5t46 -65t3.5 -89t-35.5 -100.5l-518 -1004q-36 -71 -66 -113t-63.5 -65t-75 -30t-100.5 -7q-62 0 -101 12t-60.5 38.5t-30 68t-10.5 100.5l-29 778h-6l-360 -784q-27 -59 -53 -100t-59 -66t-77 -36t-106 -11q-59 0 -97.5 7t-61.5 30t-35 65t-18 113z" />
    <glyph glyph-name="x" unicode="x" horiz-adv-x="1282" 
d="M389 54q-28 -31 -72.5 -55t-99.5 -24q-36 0 -68 13.5t-53.5 38t-31 58.5t-0.5 75q5 26 25.5 57.5t55.5 69.5l400 449l-217 442q-23 43 -16.5 95.5t38 98.5t85.5 77t128 31q48 0 82.5 -22t57.5 -79l167 -379l300 363q31 38 58 61t52.5 35.5t49 16.5t47.5 4q34 0 63.5 -14
t49.5 -38t28.5 -55t1.5 -64q-10 -44 -27.5 -75.5t-41.5 -58.5l-390 -439l211 -457q11 -23 16.5 -49.5t-3.5 -69.5q-8 -36 -28.5 -69.5t-52 -59t-72 -41t-88.5 -15.5q-31 0 -54 9t-41 25.5t-32.5 41t-27.5 54.5l-151 365z" />
    <glyph glyph-name="y" unicode="y" horiz-adv-x="1380" 
d="M809 483l428 819q18 38 41 70.5t51 56t61.5 37t74.5 13.5q52 0 86 -13t53 -34.5t24.5 -50.5t1.5 -60.5t-16 -64t-28 -61.5l-771 -1349q-58 -102 -115 -179t-120.5 -129t-138 -78.5t-168.5 -26.5q-66 0 -110.5 15t-69.5 40.5t-32.5 58t0.5 68.5q17 80 76.5 120.5
t140.5 40.5h40q19 0 39.5 2t41.5 14t42 37.5t42 71.5l48 99l-222 1104q-5 36 -8.5 62.5t-5 48t-1 39t4.5 35.5q9 40 31.5 75t54.5 60.5t70 40t78 14.5q80 0 123.5 -41t48.5 -109z" />
    <glyph glyph-name="z" unicode="z" horiz-adv-x="1462" 
d="M1097 1142h-574q-27 0 -54 8t-46 26.5t-27.5 48.5t0.5 73t30 72.5t48 48t57.5 26.5t57.5 8h944q80 0 111.5 -48.5t14.5 -126.5q-7 -32 -31 -67t-59 -66l-913 -835h653q28 0 55 -8t46.5 -26.5t27.5 -48t-1 -72.5t-30 -72.5t-48 -48t-57 -26.5t-58 -8h-1012q-44 0 -74 13
t-47.5 35t-23 49.5t0.5 57.5q10 43 30 79t52 65z" />
    <glyph glyph-name="braceleft" unicode="{" horiz-adv-x="1049" 
d="M937 1047q-14 -65 -39.5 -111.5t-57.5 -78t-68.5 -50.5t-72.5 -29.5t-69 -15t-59 -6.5l-2 -8q25 -2 56.5 -6t63.5 -14.5t60 -29.5t47 -50.5t24.5 -78t-8.5 -112.5l-139 -650q-9 -45 -6 -76.5t17 -51t37 -28.5t54 -9h71q57 0 86.5 -36t15.5 -102q-14 -65 -58 -98t-101 -33
h-214q-188 0 -262 92.5t-32 291.5l141 662q14 66 9 105t-21.5 58.5t-42 25t-52.5 5.5q-36 0 -60 12t-37 31.5t-16 45t3 51.5q5 26 18.5 50.5t35 44t50.5 31.5t65 12q27 0 54.5 5.5t53 25t46.5 58.5t35 105l141 661q42 199 155.5 291.5t301.5 92.5h214q57 0 87 -33t17 -97
q-14 -67 -59 -103t-102 -36h-71q-62 0 -107 -37t-65 -128z" />
    <glyph glyph-name="bar" unicode="|" horiz-adv-x="696" 
d="M598 2046q8 38 29.5 70t51 55t66 36t74.5 13t69 -13t51 -36t27.5 -55t-0.5 -70l-527 -2482q-8 -38 -29.5 -70t-51 -55t-66 -36t-74.5 -13t-69 13t-51 36t-27.5 55t0.5 70z" />
    <glyph glyph-name="braceright" unicode="}" horiz-adv-x="1049" 
d="M694 1696q10 45 6.5 76.5t-17 51t-37 28.5t-54.5 9h-71q-57 0 -86 36t-15 103q14 64 57.5 97t100.5 33h214q188 0 262.5 -92.5t32.5 -291.5l-141 -661q-14 -66 -9 -105t21.5 -58.5t42 -25t52.5 -5.5q36 0 60 -12t37 -31.5t16 -44t-2 -50.5q-6 -26 -19.5 -51.5t-35 -45
t-50.5 -31.5t-65 -12q-27 0 -54.5 -5.5t-53 -25t-46.5 -58.5t-35 -105l-141 -662q-42 -199 -156 -291.5t-302 -92.5h-213q-57 0 -87 33t-16 98q14 66 58.5 102t100.5 36h71q62 0 107.5 37t64.5 128l139 650q14 66 39.5 112.5t57.5 78t68.5 50.5t72 29.5t68.5 14.5t59 6l2 8
q-25 2 -56.5 6.5t-63 15t-60 29.5t-47 50.5t-24 77.5t8.5 112z" />
    <glyph glyph-name="asciitilde" unicode="~" horiz-adv-x="1667" 
d="M1694 821q-13 -61 -54 -125t-103 -116t-143 -85t-175 -33q-54 0 -106 13.5t-102 34.5t-96.5 44.5t-90 44.5t-83 34.5t-74.5 13.5q-37 0 -68.5 -12t-59.5 -30t-53.5 -39.5t-50.5 -39.5t-50.5 -30t-54.5 -12q-33 0 -52.5 11.5t-29 30t-10.5 42t4 46.5q13 61 53.5 125
t101.5 116t138.5 85t165.5 33q58 0 113 -13.5t106.5 -34.5t99 -44.5t91.5 -44.5t83.5 -34.5t74.5 -13.5q37 0 68.5 12t59.5 30.5t53.5 39.5t50.5 39.5t50.5 30.5t54.5 12q33 0 52.5 -11.5t29 -30.5t10.5 -42t-4 -47z" />
    <glyph glyph-name="saraileftthai" 
d="M-1323 1917q-33 0 -58 12.5t-40 34t-19.5 50.5t2.5 62t24 62t41.5 51t54.5 34.5t63 12.5h908q33 0 57.5 -12.5t39.5 -34.5t20 -51t-2 -62t-24 -62t-41.5 -50.5t-54.5 -34t-63 -12.5h-908z" />
    <glyph glyph-name="saraileftthai" unicode="&#xf701;" 
d="M-1323 1917q-33 0 -58 12.5t-40 34t-19.5 50.5t2.5 62t24 62t41.5 51t54.5 34.5t63 12.5h908q33 0 57.5 -12.5t39.5 -34.5t20 -51t-2 -62t-24 -62t-41.5 -50.5t-54.5 -34t-63 -12.5h-908z" />
    <glyph glyph-name="saraiileftthai" 
d="M-1323 1917q-33 0 -58 12.5t-40 34t-19.5 50.5t2.5 62t24 62t41.5 51t54.5 34.5t63 12.5h629l19 89q9 41 32 76t55.5 60t71.5 39t80 14t74 -14t54.5 -39t30 -60t-0.5 -76l-47 -219q-9 -41 -32 -76t-55 -60t-71 -39t-80 -14h-828z" />
    <glyph glyph-name="saraiileftthai" unicode="&#xf702;" 
d="M-1323 1917q-33 0 -58 12.5t-40 34t-19.5 50.5t2.5 62t24 62t41.5 51t54.5 34.5t63 12.5h629l19 89q9 41 32 76t55.5 60t71.5 39t80 14t74 -14t54.5 -39t30 -60t-0.5 -76l-47 -219q-9 -41 -32 -76t-55 -60t-71 -39t-80 -14h-828z" />
    <glyph glyph-name="saraueleftthai" 
d="M-1323 1917q-33 0 -58 12.5t-40 34t-19.5 50.5t2.5 62t24 62t41.5 51t54.5 34.5t63 12.5h437l3 13q13 64 49.5 121t88 99t113 66.5t126.5 24.5q64 0 115.5 -25t84.5 -68t45 -100.5t-1 -121.5q-15 -71 -52 -131t-89 -104t-114 -68.5t-126 -24.5h-748zM-615 2249
q-5 -22 -0.5 -41.5t16.5 -34t30.5 -23t41.5 -8.5t45 8.5t40 23t31 34t18 41.5q5 23 0.5 43t-16.5 35t-30.5 23.5t-41.5 8.5t-45 -8.5t-40 -23.5t-31 -35t-18 -43z" />
    <glyph glyph-name="saraueleftthai" unicode="&#xf703;" 
d="M-1323 1917q-33 0 -58 12.5t-40 34t-19.5 50.5t2.5 62t24 62t41.5 51t54.5 34.5t63 12.5h437l3 13q13 64 49.5 121t88 99t113 66.5t126.5 24.5q64 0 115.5 -25t84.5 -68t45 -100.5t-1 -121.5q-15 -71 -52 -131t-89 -104t-114 -68.5t-126 -24.5h-748zM-615 2249
q-5 -22 -0.5 -41.5t16.5 -34t30.5 -23t41.5 -8.5t45 8.5t40 23t31 34t18 41.5q5 23 0.5 43t-16.5 35t-30.5 23.5t-41.5 8.5t-45 -8.5t-40 -23.5t-31 -35t-18 -43z" />
    <glyph glyph-name="saraueeleftthai" 
d="M-1323 1917q-33 0 -58 12.5t-40 34t-19.5 50.5t2.5 62t24 62t41.5 51t54.5 34.5t63 12.5h256l27 127q7 34 25 62t43 47.5t56.5 30.5t65.5 11t61.5 -11t45 -30.5t24 -47.5t-0.5 -62l-27 -127h131l27 127q7 34 25 62t43.5 47.5t57 30.5t65.5 11q69 0 105.5 -41t22.5 -110
l-55 -257q-9 -41 -32 -76t-55 -60t-71 -39t-80 -14h-828z" />
    <glyph glyph-name="saraueeleftthai" unicode="&#xf704;" 
d="M-1323 1917q-33 0 -58 12.5t-40 34t-19.5 50.5t2.5 62t24 62t41.5 51t54.5 34.5t63 12.5h256l27 127q7 34 25 62t43 47.5t56.5 30.5t65.5 11t61.5 -11t45 -30.5t24 -47.5t-0.5 -62l-27 -127h131l27 127q7 34 25 62t43.5 47.5t57 30.5t65.5 11q69 0 105.5 -41t22.5 -110
l-55 -257q-9 -41 -32 -76t-55 -60t-71 -39t-80 -14h-828z" />
    <glyph glyph-name="maieklowleftthai" 
d="M-335 2081q-9 -42 -32.5 -77t-56 -60.5t-72 -39.5t-80.5 -14t-74.5 14t-55.5 39.5t-30.5 60.5t0.5 77l54 256q9 42 32.5 77t56.5 60.5t72.5 39.5t80.5 14t74.5 -14t55 -39.5t30 -60.5t-0.5 -77z" />
    <glyph glyph-name="maieklowleftthai" unicode="&#xf705;" 
d="M-335 2081q-9 -42 -32.5 -77t-56 -60.5t-72 -39.5t-80.5 -14t-74.5 14t-55.5 39.5t-30.5 60.5t0.5 77l54 256q9 42 32.5 77t56.5 60.5t72.5 39.5t80.5 14t74.5 -14t55 -39.5t30 -60.5t-0.5 -77z" />
    <glyph glyph-name="maitholowleftthai" 
d="M-412 2386q20 31 47.5 53t58 33t61.5 10t57 -15q25 -14 40.5 -38.5t19 -54t-4 -62.5t-28.5 -64q-46 -69 -111.5 -129t-150 -103.5t-187.5 -68.5t-223 -25h-133q-27 0 -46.5 10.5t-31 29t-14 43t3.5 52.5l29 136h-45q-27 0 -46.5 10.5t-31 29t-15 43t2.5 52.5t19.5 52.5
t33 43t43.5 29t51 10.5h228q27 0 46.5 -10.5t31 -29t14.5 -43t-3 -52.5l-24 -115q51 3 97 17.5t86 38t72 53.5t53 64z" />
    <glyph glyph-name="maitholowleftthai" unicode="&#xf706;" 
d="M-412 2386q20 31 47.5 53t58 33t61.5 10t57 -15q25 -14 40.5 -38.5t19 -54t-4 -62.5t-28.5 -64q-46 -69 -111.5 -129t-150 -103.5t-187.5 -68.5t-223 -25h-133q-27 0 -46.5 10.5t-31 29t-14 43t3.5 52.5l29 136h-45q-27 0 -46.5 10.5t-31 29t-15 43t2.5 52.5t19.5 52.5
t33 43t43.5 29t51 10.5h228q27 0 46.5 -10.5t31 -29t14.5 -43t-3 -52.5l-24 -115q51 3 97 17.5t86 38t72 53.5t53 64z" />
    <glyph glyph-name="maitrilowleftthai" 
d="M-360 2376q13 29 34.5 51t47 35.5t53 18t53.5 -2.5q28 -8 45 -25.5t23 -41.5t2 -52.5t-17 -57.5q-33 -67 -77.5 -130.5t-95.5 -115.5t-105.5 -88t-107.5 -46h-104q-35 0 -53.5 24.5t-13.5 62.5q4 26 5.5 50.5t-1.5 43t-12.5 30t-27.5 11.5q-29 0 -47 -20.5t-27 -54.5
q-10 -38 -37.5 -62.5t-63.5 -24.5q-34 0 -52 25t-11 62q6 31 -3 53t-37 22q-38 0 -58 -31.5t-32 -81.5q-17 -66 -57 -97.5t-91 -31.5q-27 0 -47 10t-31.5 27.5t-15 41t2.5 50.5q21 96 59 167t85 117.5t99.5 69.5t102.5 23q51 0 89.5 -27.5t62.5 -72.5q43 45 94 72.5
t107 27.5q34 0 64.5 -11.5t54 -33.5t38.5 -53t18 -71q22 24 45 60t40 78z" />
    <glyph glyph-name="maitrilowleftthai" unicode="&#xf707;" 
d="M-360 2376q13 29 34.5 51t47 35.5t53 18t53.5 -2.5q28 -8 45 -25.5t23 -41.5t2 -52.5t-17 -57.5q-33 -67 -77.5 -130.5t-95.5 -115.5t-105.5 -88t-107.5 -46h-104q-35 0 -53.5 24.5t-13.5 62.5q4 26 5.5 50.5t-1.5 43t-12.5 30t-27.5 11.5q-29 0 -47 -20.5t-27 -54.5
q-10 -38 -37.5 -62.5t-63.5 -24.5q-34 0 -52 25t-11 62q6 31 -3 53t-37 22q-38 0 -58 -31.5t-32 -81.5q-17 -66 -57 -97.5t-91 -31.5q-27 0 -47 10t-31.5 27.5t-15 41t2.5 50.5q21 96 59 167t85 117.5t99.5 69.5t102.5 23q51 0 89.5 -27.5t62.5 -72.5q43 45 94 72.5
t107 27.5q34 0 64.5 -11.5t54 -33.5t38.5 -53t18 -71q22 24 45 60t40 78z" />
    <glyph glyph-name="maichattawalowleftthai" 
d="M-753 2463q8 37 28.5 68.5t49.5 54t64.5 35t72.5 12.5q38 0 68.5 -12.5t50 -35t27 -54t-0.5 -68.5l-12 -58h129q29 0 51 -11t35 -30t17 -44.5t-2 -53.5q-6 -29 -21 -54.5t-36.5 -44.5t-48 -30t-55.5 -11h-129l-12 -56q-8 -38 -29 -69t-50 -54t-65 -35.5t-73 -12.5
q-38 0 -67.5 12.5t-49 35.5t-27 54t0.5 69l12 56h-129q-29 0 -51 11t-35 30.5t-17 45t2 54.5q6 28 21 53.5t36.5 44t48 29.5t55.5 11h129z" />
    <glyph glyph-name="maichattawalowleftthai" unicode="&#xf708;" 
d="M-753 2463q8 37 28.5 68.5t49.5 54t64.5 35t72.5 12.5q38 0 68.5 -12.5t50 -35t27 -54t-0.5 -68.5l-12 -58h129q29 0 51 -11t35 -30t17 -44.5t-2 -53.5q-6 -29 -21 -54.5t-36.5 -44.5t-48 -30t-55.5 -11h-129l-12 -56q-8 -38 -29 -69t-50 -54t-65 -35.5t-73 -12.5
q-38 0 -67.5 12.5t-49 35.5t-27 54t0.5 69l12 56h-129q-29 0 -51 11t-35 30.5t-17 45t2 54.5q6 28 21 53.5t36.5 44t48 29.5t55.5 11h129z" />
    <glyph glyph-name="thanthakhatlowleftthai" 
d="M-294 2483q71 5 111.5 -26.5t38.5 -92.5q0 -30 -13 -60t-34 -54t-49.5 -40.5t-59.5 -19.5q-51 -5 -91 -20.5t-70.5 -38t-53.5 -51.5t-39 -62q-19 -39 -50.5 -65t-68.5 -39.5t-76.5 -14.5t-74.5 12q-38 14 -60.5 41t-29.5 61.5t2 73.5t34 75q45 66 103.5 121.5t131.5 97
t160.5 68t188.5 34.5z" />
    <glyph glyph-name="thanthakhatlowleftthai" unicode="&#xf709;" 
d="M-294 2483q71 5 111.5 -26.5t38.5 -92.5q0 -30 -13 -60t-34 -54t-49.5 -40.5t-59.5 -19.5q-51 -5 -91 -20.5t-70.5 -38t-53.5 -51.5t-39 -62q-19 -39 -50.5 -65t-68.5 -39.5t-76.5 -14.5t-74.5 12q-38 14 -60.5 41t-29.5 61.5t2 73.5t34 75q45 66 103.5 121.5t131.5 97
t160.5 68t188.5 34.5z" />
    <glyph glyph-name="maieklowrightthai" 
d="M286 2081q-9 -42 -32.5 -77t-56 -60.5t-72 -39.5t-80.5 -14t-74.5 14t-55 39.5t-30 60.5t0.5 77l61 286q9 42 32 77t55.5 60.5t72 39.5t80.5 14t74.5 -14t55.5 -39.5t30.5 -60.5t-0.5 -77z" />
    <glyph glyph-name="maieklowrightthai" unicode="&#xf70a;" 
d="M286 2081q-9 -42 -32.5 -77t-56 -60.5t-72 -39.5t-80.5 -14t-74.5 14t-55 39.5t-30 60.5t0.5 77l61 286q9 42 32 77t55.5 60.5t72 39.5t80.5 14t74.5 -14t55.5 -39.5t30.5 -60.5t-0.5 -77z" />
    <glyph glyph-name="maitholowrightthai" 
d="M90 2386q21 31 50 53t61 33t65 10t61 -15q27 -14 43.5 -38.5t21 -54t-3.5 -62.5t-29 -64q-48 -69 -117 -129t-158 -103.5t-198 -68.5t-236 -25h-141q-29 0 -50 10.5t-33 29t-15.5 43t2.5 52.5l29 136h-48q-28 0 -49 10.5t-33.5 29t-16.5 43t2 52.5t20.5 52.5t34.5 43
t45.5 29t53.5 10.5h243q28 0 49 -10.5t33.5 -29t16 -43t-2.5 -52.5l-24 -115q54 3 103 17.5t91 38t75 53.5t55 64z" />
    <glyph glyph-name="maitholowrightthai" unicode="&#xf70b;" 
d="M90 2386q21 31 50 53t61 33t65 10t61 -15q27 -14 43.5 -38.5t21 -54t-3.5 -62.5t-29 -64q-48 -69 -117 -129t-158 -103.5t-198 -68.5t-236 -25h-141q-29 0 -50 10.5t-33 29t-15.5 43t2.5 52.5l29 136h-48q-28 0 -49 10.5t-33.5 29t-16.5 43t2 52.5t20.5 52.5t34.5 43
t45.5 29t53.5 10.5h243q28 0 49 -10.5t33.5 -29t16 -43t-2.5 -52.5l-24 -115q54 3 103 17.5t91 38t75 53.5t55 64z" />
    <glyph glyph-name="maitrilowrightthai" 
d="M119 2374q15 29 40 51t55.5 35.5t63.5 17.5t64 -3q35 -8 56 -25t29.5 -41t5 -52t-18.5 -57q-36 -67 -86.5 -130.5t-109.5 -115.5t-123.5 -87.5t-127.5 -45.5h-127q-42 0 -65 24.5t-18 62.5q3 26 4 50t-3.5 43t-15.5 30t-32 11q-28 0 -53 -18t-36 -66q-5 -19 -16 -35
t-27.5 -27.5t-36.5 -18t-41 -6.5q-42 0 -66 24.5t-17 62.5q8 46 -6.5 65t-44.5 19q-39 0 -63.5 -32t-36.5 -80q-17 -66 -64.5 -97.5t-107.5 -31.5q-34 0 -58.5 10t-39 27.5t-19.5 41t1 50.5q20 96 63 166.5t98 116.5t117.5 68.5t122.5 22.5q61 0 109 -27.5t80 -70.5
q50 43 109.5 70.5t128.5 27.5q41 0 78 -11.5t66 -33t48.5 -52.5t25.5 -71q26 24 50.5 60t44.5 78z" />
    <glyph glyph-name="maitrilowrightthai" unicode="&#xf70c;" 
d="M119 2374q15 29 40 51t55.5 35.5t63.5 17.5t64 -3q35 -8 56 -25t29.5 -41t5 -52t-18.5 -57q-36 -67 -86.5 -130.5t-109.5 -115.5t-123.5 -87.5t-127.5 -45.5h-127q-42 0 -65 24.5t-18 62.5q3 26 4 50t-3.5 43t-15.5 30t-32 11q-28 0 -53 -18t-36 -66q-5 -19 -16 -35
t-27.5 -27.5t-36.5 -18t-41 -6.5q-42 0 -66 24.5t-17 62.5q8 46 -6.5 65t-44.5 19q-39 0 -63.5 -32t-36.5 -80q-17 -66 -64.5 -97.5t-107.5 -31.5q-34 0 -58.5 10t-39 27.5t-19.5 41t1 50.5q20 96 63 166.5t98 116.5t117.5 68.5t122.5 22.5q61 0 109 -27.5t80 -70.5
q50 43 109.5 70.5t128.5 27.5q41 0 78 -11.5t66 -33t48.5 -52.5t25.5 -71q26 24 50.5 60t44.5 78z" />
    <glyph glyph-name="maichattawalowrightthai" 
d="M-21 2485q8 39 29.5 72t52.5 56.5t68 37t76 13.5t70.5 -13.5t52 -37t28 -56.5t-0.5 -72l-13 -60h136q30 0 53 -11.5t36.5 -31t17.5 -46.5t-2 -57t-21.5 -56.5t-38 -46t-50 -31t-57.5 -11.5h-136l-13 -60q-8 -39 -30 -72t-53 -56.5t-68 -37t-76 -13.5t-70 13.5t-51.5 37
t-28 56.5t0.5 72l13 60h-136q-30 0 -53 11.5t-36.5 31t-17.5 46.5t2 57t21.5 56.5t38 46t50 31t57.5 11.5h136z" />
    <glyph glyph-name="maichattawalowrightthai" unicode="&#xf70d;" 
d="M-21 2485q8 39 29.5 72t52.5 56.5t68 37t76 13.5t70.5 -13.5t52 -37t28 -56.5t-0.5 -72l-13 -60h136q30 0 53 -11.5t36.5 -31t17.5 -46.5t-2 -57t-21.5 -56.5t-38 -46t-50 -31t-57.5 -11.5h-136l-13 -60q-8 -39 -30 -72t-53 -56.5t-68 -37t-76 -13.5t-70 13.5t-51.5 37
t-28 56.5t0.5 72l13 60h-136q-30 0 -53 11.5t-36.5 31t-17.5 46.5t2 57t21.5 56.5t38 46t50 31t57.5 11.5h136z" />
    <glyph glyph-name="thanthakhatlowrightthai" 
d="M306 2483q71 5 111.5 -26.5t38.5 -92.5q0 -30 -13 -60t-34 -54t-49.5 -40.5t-59.5 -19.5q-51 -5 -91 -20.5t-70.5 -38t-53.5 -51.5t-39 -62q-18 -39 -49.5 -65t-68.5 -39.5t-76.5 -14.5t-74.5 12q-38 14 -60.5 41t-29.5 61.5t2 73.5t34 75q45 66 103.5 121.5t131.5 97
t160 68t188 34.5z" />
    <glyph glyph-name="thanthakhatlowrightthai" unicode="&#xf70e;" 
d="M306 2483q71 5 111.5 -26.5t38.5 -92.5q0 -30 -13 -60t-34 -54t-49.5 -40.5t-59.5 -19.5q-51 -5 -91 -20.5t-70.5 -38t-53.5 -51.5t-39 -62q-18 -39 -49.5 -65t-68.5 -39.5t-76.5 -14.5t-74.5 12q-38 14 -60.5 41t-29.5 61.5t2 73.5t34 75q45 66 103.5 121.5t131.5 97
t160 68t188 34.5z" />
    <glyph glyph-name="maihanakatleftthai" 
d="M-805 2236q8 38 29.5 70t51.5 55t66.5 36t74.5 13t69 -13t51 -36t27.5 -55t-0.5 -70h949q33 0 58 -12.5t40 -34.5t20 -51t-2 -62t-24.5 -62t-42 -50.5t-54.5 -34t-63 -12.5h-1133q-38 0 -69 13t-51.5 36t-28 55t0.5 70z" />
    <glyph glyph-name="maihanakatleftthai" unicode="&#xf710;" 
d="M-805 2236q8 38 29.5 70t51.5 55t66.5 36t74.5 13t69 -13t51 -36t27.5 -55t-0.5 -70h949q33 0 58 -12.5t40 -34.5t20 -51t-2 -62t-24.5 -62t-42 -50.5t-54.5 -34t-63 -12.5h-1133q-38 0 -69 13t-51.5 36t-28 55t0.5 70z" />
    <glyph glyph-name="nikhahitleftthai" 
d="M-723 2224q-5 -24 0.5 -47t19.5 -41t34.5 -28.5t45.5 -10.5q26 0 52 10.5t48 28.5t37.5 41t20.5 47q6 26 0.5 50t-20 42t-36 28.5t-47.5 10.5q-25 0 -50 -10.5t-46.5 -28.5t-37 -42t-21.5 -50zM-944 2224q16 74 57 138t98 111.5t126.5 75t141.5 27.5q70 0 128 -27.5
t96.5 -75t53.5 -111.5t-1 -138q-15 -72 -57 -135.5t-100.5 -110.5t-128.5 -74.5t-140 -27.5q-72 0 -130 27.5t-95 74.5t-50.5 110.5t1.5 135.5z" />
    <glyph glyph-name="nikhahitleftthai" unicode="&#xf711;" 
d="M-723 2224q-5 -24 0.5 -47t19.5 -41t34.5 -28.5t45.5 -10.5q26 0 52 10.5t48 28.5t37.5 41t20.5 47q6 26 0.5 50t-20 42t-36 28.5t-47.5 10.5q-25 0 -50 -10.5t-46.5 -28.5t-37 -42t-21.5 -50zM-944 2224q16 74 57 138t98 111.5t126.5 75t141.5 27.5q70 0 128 -27.5
t96.5 -75t53.5 -111.5t-1 -138q-15 -72 -57 -135.5t-100.5 -110.5t-128.5 -74.5t-140 -27.5q-72 0 -130 27.5t-95 74.5t-50.5 110.5t1.5 135.5z" />
    <glyph glyph-name="maitaikhuleftthai" 
d="M-830 2472q-53 0 -87 -14.5t-53.5 -35t-28.5 -43.5t-12 -40q-2 -11 -3 -29t3.5 -35.5t17 -30.5t37.5 -13q29 0 53.5 17t39.5 48q20 46 60.5 69t85.5 23q48 0 79.5 -21.5t33.5 -70.5q-1 -29 13.5 -47t40.5 -18q24 0 42.5 14t29.5 40q23 56 71 80.5t99 19.5q30 -3 54 -15.5
t38.5 -34t17 -51.5t-10.5 -69q-23 -70 -61 -118.5t-85.5 -78.5t-101 -43.5t-108.5 -13.5q-40 0 -72.5 10.5t-59 27.5t-46 39t-32.5 46q-25 -25 -57 -47.5t-68 -39t-75 -26.5t-78 -10q-68 0 -117 18t-82 48t-52 69t-27.5 81t-7 84t9.5 78q22 104 75.5 180t125.5 125.5t157 73
t171 23.5h699q27 0 47 -10.5t32 -29t16 -43t-2 -52.5t-20 -52.5t-33.5 -42.5t-44.5 -28.5t-52 -10.5h-672z" />
    <glyph glyph-name="maitaikhuleftthai" unicode="&#xf712;" 
d="M-830 2472q-53 0 -87 -14.5t-53.5 -35t-28.5 -43.5t-12 -40q-2 -11 -3 -29t3.5 -35.5t17 -30.5t37.5 -13q29 0 53.5 17t39.5 48q20 46 60.5 69t85.5 23q48 0 79.5 -21.5t33.5 -70.5q-1 -29 13.5 -47t40.5 -18q24 0 42.5 14t29.5 40q23 56 71 80.5t99 19.5q30 -3 54 -15.5
t38.5 -34t17 -51.5t-10.5 -69q-23 -70 -61 -118.5t-85.5 -78.5t-101 -43.5t-108.5 -13.5q-40 0 -72.5 10.5t-59 27.5t-46 39t-32.5 46q-25 -25 -57 -47.5t-68 -39t-75 -26.5t-78 -10q-68 0 -117 18t-82 48t-52 69t-27.5 81t-7 84t9.5 78q22 104 75.5 180t125.5 125.5t157 73
t171 23.5h699q27 0 47 -10.5t32 -29t16 -43t-2 -52.5t-20 -52.5t-33.5 -42.5t-44.5 -28.5t-52 -10.5h-672z" />
    <glyph glyph-name="maiekupperleftthai" 
d="M-104 2823q-9 -41 -31.5 -74.5t-54 -58.5t-70 -38.5t-78.5 -13.5t-72.5 13.5t-53.5 38.5t-29.5 58.5t0.5 74.5l48 228q9 40 31.5 74t54 59t70 38.5t78.5 13.5t72.5 -13.5t53.5 -38.5t29.5 -59t-0.5 -74z" />
    <glyph glyph-name="maiekupperleftthai" unicode="&#xf713;" 
d="M-104 2823q-9 -41 -31.5 -74.5t-54 -58.5t-70 -38.5t-78.5 -13.5t-72.5 13.5t-53.5 38.5t-29.5 58.5t0.5 74.5l48 228q9 40 31.5 74t54 59t70 38.5t78.5 13.5t72.5 -13.5t53.5 -38.5t29.5 -59t-0.5 -74z" />
    <glyph glyph-name="maithoupperleftthai" 
d="M7 3122q21 31 49.5 53t59.5 33t63 10t60 -15q27 -14 43.5 -38.5t21 -54t-3 -62.5t-28.5 -64q-48 -69 -117.5 -129t-158.5 -103.5t-198 -68.5t-236 -25h-141q-29 0 -50 10.5t-33 29t-15.5 43t2.5 52.5l29 136h-48q-28 0 -49 10.5t-33.5 29t-16 43t2.5 52.5t20 52.5
t34.5 43t45.5 29t53 10.5h243q28 0 49 -10.5t33.5 -29t16.5 -43t-2 -52.5l-25 -115q59 4 109.5 19t92 38t73.5 52.5t54 63.5z" />
    <glyph glyph-name="maithoupperleftthai" unicode="&#xf714;" 
d="M7 3122q21 31 49.5 53t59.5 33t63 10t60 -15q27 -14 43.5 -38.5t21 -54t-3 -62.5t-28.5 -64q-48 -69 -117.5 -129t-158.5 -103.5t-198 -68.5t-236 -25h-141q-29 0 -50 10.5t-33 29t-15.5 43t2.5 52.5l29 136h-48q-28 0 -49 10.5t-33.5 29t-16 43t2.5 52.5t20 52.5
t34.5 43t45.5 29t53 10.5h243q28 0 49 -10.5t33.5 -29t16.5 -43t-2 -52.5l-25 -115q59 4 109.5 19t92 38t73.5 52.5t54 63.5z" />
    <glyph glyph-name="maitriupperleftthai" 
d="M67 3108q14 29 37.5 51t51 35.5t57.5 18t57 -2.5q31 -8 50 -25.5t26 -41.5t3 -52t-18 -57q-34 -67 -81 -130.5t-101 -115.5t-113 -87.5t-116 -45.5h-114q-38 0 -58.5 24.5t-15.5 62.5q4 26 5 50t-3.5 43t-15.5 30t-31 11q-32 0 -49 -20.5t-27 -53.5q-13 -42 -41.5 -64.5
t-66.5 -22.5t-59 23t-13 64q6 33 -4.5 53.5t-42.5 20.5q-35 0 -58.5 -31.5t-35.5 -80.5q-16 -66 -60 -97.5t-98 -31.5q-30 0 -52 10t-35 27.5t-17 41t2 50.5q20 96 60 166.5t91 117t108.5 69t111.5 22.5q55 0 97 -27.5t70 -71.5q46 44 101 71.5t117 27.5q37 0 70 -11.5
t59.5 -33t43 -52.5t20.5 -71q23 24 46 59.5t42 77.5z" />
    <glyph glyph-name="maitriupperleftthai" unicode="&#xf715;" 
d="M67 3108q14 29 37.5 51t51 35.5t57.5 18t57 -2.5q31 -8 50 -25.5t26 -41.5t3 -52t-18 -57q-34 -67 -81 -130.5t-101 -115.5t-113 -87.5t-116 -45.5h-114q-38 0 -58.5 24.5t-15.5 62.5q4 26 5 50t-3.5 43t-15.5 30t-31 11q-32 0 -49 -20.5t-27 -53.5q-13 -42 -41.5 -64.5
t-66.5 -22.5t-59 23t-13 64q6 33 -4.5 53.5t-42.5 20.5q-35 0 -58.5 -31.5t-35.5 -80.5q-16 -66 -60 -97.5t-98 -31.5q-30 0 -52 10t-35 27.5t-17 41t2 50.5q20 96 60 166.5t91 117t108.5 69t111.5 22.5q55 0 97 -27.5t70 -71.5q46 44 101 71.5t117 27.5q37 0 70 -11.5
t59.5 -33t43 -52.5t20.5 -71q23 24 46 59.5t42 77.5z" />
    <glyph glyph-name="maichattawaupperleftthai" 
d="M-400 3222q8 39 30 72t52.5 56.5t68 37t76.5 13.5t70.5 -13.5t52 -37t28 -56.5t-0.5 -72l-12 -60h135q30 0 53 -11.5t36.5 -31t17.5 -46.5t-2 -57q-7 -30 -22.5 -56.5t-37.5 -46t-49.5 -31t-57.5 -11.5h-135l-13 -60q-8 -39 -30 -72t-53 -56.5t-68 -37t-76 -13.5
t-70.5 13.5t-52 37t-28 56.5t0.5 72l13 60h-136q-30 0 -53 11.5t-36.5 31t-17.5 46.5t2 57t21.5 56.5t38 46t50 31t57.5 11.5h136z" />
    <glyph glyph-name="maichattawaupperleftthai" unicode="&#xf716;" 
d="M-400 3222q8 39 30 72t52.5 56.5t68 37t76.5 13.5t70.5 -13.5t52 -37t28 -56.5t-0.5 -72l-12 -60h135q30 0 53 -11.5t36.5 -31t17.5 -46.5t-2 -57q-7 -30 -22.5 -56.5t-37.5 -46t-49.5 -31t-57.5 -11.5h-135l-13 -60q-8 -39 -30 -72t-53 -56.5t-68 -37t-76 -13.5
t-70.5 13.5t-52 37t-28 56.5t0.5 72l13 60h-136q-30 0 -53 11.5t-36.5 31t-17.5 46.5t2 57t21.5 56.5t38 46t50 31t57.5 11.5h136z" />
    <glyph glyph-name="thanthakhatupperleftthai" 
d="M95 3027q70 5 111 -26.5t39 -92.5q-1 -30 -13.5 -60t-33.5 -54t-49.5 -40.5t-59.5 -19.5q-51 -5 -90.5 -20.5t-70 -38t-53.5 -51.5t-39 -62q-19 -39 -50.5 -65t-69 -39.5t-77 -14.5t-74.5 12q-38 14 -60.5 41t-29 61.5t2.5 73.5t34 75q45 66 103.5 121.5t131.5 97t160 68
t188 34.5z" />
    <glyph glyph-name="thanthakhatupperleftthai" unicode="&#xf717;" 
d="M95 3027q70 5 111 -26.5t39 -92.5q-1 -30 -13.5 -60t-33.5 -54t-49.5 -40.5t-59.5 -19.5q-51 -5 -90.5 -20.5t-70 -38t-53.5 -51.5t-39 -62q-19 -39 -50.5 -65t-69 -39.5t-77 -14.5t-74.5 12q-38 14 -60.5 41t-29 61.5t2.5 73.5t34 75q45 66 103.5 121.5t131.5 97t160 68
t188 34.5z" />
    <glyph glyph-name="uni00A0" unicode="&#xa0;" horiz-adv-x="496" 
 />
    <glyph glyph-name="cent" unicode="&#xa2;" horiz-adv-x="1634" 
d="M1052 1408q-48 -13 -96.5 -43t-92 -82t-79 -128t-57.5 -180q-32 -152 6 -252t146 -128zM814 289q-155 10 -257.5 65.5t-157.5 146.5t-65 212t20 262q32 152 97.5 281t162 226t222.5 157t281 75l37 173q4 20 15 36.5t26 28t32.5 18t34.5 6.5q16 0 30.5 -6.5t24.5 -18
t14 -28t0 -36.5l-36 -167q109 -8 192.5 -41t138 -82.5t77 -110t9.5 -123.5q-9 -41 -29.5 -72t-49 -51.5t-63.5 -31t-71 -10.5q-41 0 -63 13.5t-36 35t-24.5 47.5t-26.5 50t-43.5 43.5t-75.5 28.5l-175 -826q50 10 85 31.5t62.5 47.5t51 54.5t49.5 51.5t58.5 38t77.5 15
q36 0 63 -12t43.5 -32.5t22 -47t-0.5 -54.5q-12 -58 -54.5 -123t-115 -121.5t-174.5 -97.5t-232 -51l-39 -184q-4 -20 -15 -36.5t-26 -28t-32.5 -18t-33.5 -6.5q-34 0 -56 25t-14 64z" />
    <glyph glyph-name="sterling" unicode="&#xa3;" horiz-adv-x="1675" 
d="M1209 1099q85 0 120 -31.5t21 -99.5q-14 -67 -62.5 -98.5t-133.5 -31.5h-214q2 -17 2.5 -32t-3.5 -33q-13 -60 -49.5 -124t-87.5 -124.5t-112.5 -114.5t-124.5 -94l3 -6q39 14 75 29t74.5 27t80 20t90.5 8q66 0 118 -8.5t97.5 -18.5t90 -18.5t96.5 -8.5q18 0 46.5 4.5
t59 10.5t58 10.5t44.5 4.5q37 0 64 -13.5t42 -37t19 -55t-4 -68.5q-13 -62 -50 -106t-87 -72t-109 -40.5t-116 -12.5q-69 0 -138.5 16t-143 35.5t-153 35.5t-169.5 16q-82 0 -135.5 -15.5t-92.5 -36.5q-20 -9 -38 -18t-35.5 -16.5t-35.5 -12t-38 -4.5q-43 0 -73 14.5
t-46.5 39.5t-20.5 59t5 74q9 44 38.5 83.5t69 78t85 79t87 87t74 101t46.5 121.5q8 37 6.5 71t-7.5 65h-144q-65 0 -99.5 32.5t-20.5 97.5q13 60 53 95.5t103 35.5h74q-15 31 -24 72.5t-12 87t-0.5 92.5t11.5 89q18 84 57.5 159.5t97 139t130.5 114.5t156.5 87t175 55
t187.5 19q119 0 213.5 -20t165.5 -54.5t120 -80t77 -97.5t35.5 -107.5t-3.5 -108.5q-10 -46 -32.5 -81.5t-54.5 -59.5t-72 -36.5t-85 -12.5t-70.5 14.5t-40 37.5t-21.5 53t-15 61t-21.5 61t-39.5 53t-69.5 37.5t-112.5 14.5q-60 0 -120.5 -18t-111.5 -52.5t-88 -85
t-51 -116.5q-7 -35 -8 -77.5t2.5 -85.5t11 -83t17.5 -71h296z" />
    <glyph glyph-name="yen" unicode="&#xa5;" horiz-adv-x="1978" 
d="M889 542h-337q-23 0 -40.5 8t-29 22.5t-15.5 33.5t1 42q5 22 17.5 41.5t29.5 33.5t38 22.5t44 8.5h337l17 79l-30 78h-291q-23 0 -40.5 8.5t-28.5 22.5t-15 33.5t1 42.5q4 22 16.5 41.5t29.5 33.5t38 22.5t44 8.5h166l-233 590q-23 59 -11.5 115t49 99.5t95.5 69.5
t129 26q43 0 71.5 -14.5t46.5 -35t27 -42.5t13 -36l216 -694l513 694q10 14 28.5 36t45 42.5t61 35t77.5 14.5q67 0 114.5 -25t68 -67.5t9 -99t-61.5 -118.5l-485 -590h165q22 0 40 -8.5t29.5 -22.5t15.5 -33.5t0 -41.5q-5 -23 -17.5 -42.5t-30 -33.5t-39 -22.5t-43.5 -8.5
h-291l-62 -78l-17 -79h337q22 0 40 -8.5t29.5 -22.5t15.5 -33.5t-1 -41.5q-5 -23 -17.5 -42t-29.5 -33.5t-38.5 -22.5t-43.5 -8h-337l-77 -360q-10 -49 -33 -89t-56.5 -68.5t-77 -44t-94.5 -15.5t-87.5 15.5t-58 44t-27.5 68.5t4 89z" />
    <glyph glyph-name="copyright" unicode="&#xa9;" horiz-adv-x="2216" 
d="M275 987q31 145 97 278.5t159.5 248.5t209 209t246 160.5t271 103t282.5 36.5t266.5 -36.5t226 -103t177 -160.5t119 -209t52.5 -248.5t-22 -278.5q-32 -149 -98 -284t-158.5 -250t-207.5 -208t-244.5 -158.5t-269.5 -100.5t-282 -35t-267.5 35t-227.5 100.5t-178 158.5
t-120 208t-53.5 249.5t22.5 284.5zM537 987q-37 -175 -10.5 -324.5t107.5 -258.5t211 -170.5t301 -61.5q109 0 215.5 28t204.5 79.5t184.5 125t156 164t119.5 196t75 222.5t20 222t-36.5 194.5t-87 162t-131.5 123t-171 78t-204 27.5q-114 0 -222 -27.5t-205.5 -78
t-182.5 -123t-153 -162t-117 -194.5t-74 -222zM789 986q27 127 88 235.5t148 188.5t197.5 125.5t236.5 45.5q107 0 184.5 -31.5t125.5 -80t66.5 -107t6.5 -112.5q-8 -36 -25 -61.5t-38 -41t-41.5 -22.5t-33.5 -7q-30 0 -49 7.5t-30.5 20.5t-18 30t-11.5 36q-8 23 -17 46.5
t-28.5 42.5t-53 31t-88.5 12q-58 0 -110.5 -24.5t-96 -70t-76 -111t-49.5 -146.5q-17 -79 -12.5 -145t28.5 -114t67 -75t103 -27q49 0 85.5 12t64 30.5t48.5 42.5t41 48q16 20 32 38t34.5 32t41 22.5t51.5 8.5q50 0 74 -31t13 -85q-6 -26 -27.5 -62.5t-56.5 -76t-82 -78.5
t-105 -69.5t-124.5 -49.5t-140.5 -19q-124 0 -215.5 46t-146 125.5t-70.5 187.5t10 233z" />
    <glyph glyph-name="guillemotleft" unicode="&#xab;" horiz-adv-x="1516" 
d="M594 778l190 -153q32 -24 49.5 -60t7.5 -81q-6 -27 -21 -52.5t-36 -45t-47 -31.5t-54 -12q-37 0 -58 14.5t-38 28.5l-225 193q-41 33 -54.5 86t-0.5 113t49 113t90 85l307 193q23 14 50.5 29t64.5 15q28 0 49 -12t34 -31.5t17 -45t-2 -53.5q-9 -45 -42 -80.5t-75 -60.5z
M1228 778l190 -153q32 -24 49.5 -60t7.5 -81q-6 -27 -21 -52.5t-36.5 -45t-47.5 -31.5t-53 -12q-37 0 -58 14.5t-38 28.5l-226 193q-40 33 -53.5 86t-0.5 113t48.5 113t89.5 85l308 193q23 14 50.5 29t64.5 15q27 0 48 -12t34 -31.5t17.5 -45t-1.5 -53.5q-9 -45 -42 -80.5
t-75 -60.5z" />
    <glyph glyph-name="registered" unicode="&#xae;" horiz-adv-x="2216" 
d="M275 987q31 145 97 278.5t159.5 248.5t209 209t246 160.5t271 103t282.5 36.5t266.5 -36.5t226 -103t177 -160.5t119 -209t52.5 -248.5t-22 -278.5q-32 -149 -98 -284t-158.5 -250t-207.5 -208t-244.5 -158.5t-269.5 -100.5t-282 -35t-267.5 35t-227.5 100.5t-178 158.5
t-120 208t-53.5 249.5t22.5 284.5zM537 987q-37 -175 -10.5 -324.5t107.5 -258.5t211 -170.5t301 -61.5q109 0 215.5 28t204.5 79.5t184.5 125t156 164t119.5 196t75 222.5t20 222t-36.5 194.5t-87 162t-131.5 123t-171 78t-204 27.5q-114 0 -222 -27.5t-205.5 -78
t-182.5 -123t-153 -162t-117 -194.5t-74 -222zM996 1401q7 31 22.5 54.5t36.5 39t45.5 23t48.5 7.5h352q94 0 165 -16t114.5 -54t57 -103t-7.5 -162q-16 -77 -50.5 -134.5t-79 -97t-95.5 -60.5t-100 -24l129 -239q12 -23 17.5 -48t1 -49.5t-19 -47t-42.5 -41.5
q-33 -22 -63.5 -27t-56.5 4t-47 29t-35 49l-183 370h-72l-69 -324q-7 -33 -22 -57t-35 -39.5t-44.5 -23.5t-49.5 -8q-26 0 -47 8t-35 23.5t-19 39.5t2 57zM1177 1073h213q30 0 58 5t51.5 19.5t40.5 39.5t26 64q8 38 1 62t-24.5 37.5t-43.5 18.5t-56 5h-213z" />
    <glyph glyph-name="guillemotright" unicode="&#xbb;" horiz-adv-x="1516" 
d="M1061 930q-32 25 -49 60.5t-8 80.5q6 28 21 53.5t36 45t47 31.5t54 12q37 0 58.5 -15t38.5 -29l225 -193q41 -32 54.5 -85t0.5 -113t-49 -113t-90 -86l-307 -193q-23 -14 -51 -28.5t-65 -14.5q-28 0 -49 12t-33.5 31.5t-17 45t1.5 52.5q10 45 42.5 81t74.5 60l256 153z
M427 930q-32 25 -49 60.5t-8 80.5q6 28 21 53.5t36.5 45t47.5 31.5t53 12q37 0 58.5 -15t38.5 -29l226 -193q40 -32 53.5 -85t0.5 -113t-48.5 -113t-89.5 -86l-308 -193q-23 -14 -51 -28.5t-65 -14.5q-27 0 -48 12t-34 31.5t-17.5 45t1.5 52.5q10 45 42.5 81t74.5 60
l256 153z" />
    <glyph glyph-name="onequarter" unicode="&#xbc;" horiz-adv-x="2458" 
d="M2145 854h-6l-394 -394h316zM2016 248h-438q-35 0 -58 11t-36.5 28t-17 37.5t0.5 39.5q8 39 20.5 61.5t27.5 36.5l643 623q18 18 36.5 32t39.5 23.5t46 15t58 5.5q66 0 100.5 -34t22.5 -91l-123 -576h66q45 0 65 -29.5t10 -76.5q-11 -48 -43 -77t-77 -29h-66l-31 -145
q-5 -26 -16 -47t-30.5 -36t-47.5 -23t-68 -8t-65 8t-38 23t-15 36t3 47zM2068 1968q10 13 22.5 27t27.5 25t33 18t39 7q22 0 40 -8t29.5 -21t16 -30t0.5 -34q-4 -20 -16.5 -43t-32.5 -49l-1372 -1850q-10 -13 -23 -26.5t-28.5 -24.5t-33.5 -18t-38 -7q-23 0 -40.5 8t-29 21
t-16 29.5t-0.5 33.5q9 41 49 93zM635 936q36 165 64 298q12 57 23.5 112t21 99t16 73.5t7.5 35.5q-61 -26 -120 -32.5t-102 -6.5q-44 0 -65 25t-10 76q6 28 17 46t28.5 29.5t43.5 18t62 12.5l67 11q49 8 82.5 28t57.5 46t43 53.5t40 50.5t47 38t66 15q55 0 79.5 -23.5
t10.5 -88.5l-195 -916q-7 -33 -19 -59.5t-32 -45t-49.5 -29t-71.5 -10.5q-77 0 -101.5 39.5t-10.5 104.5z" />
    <glyph glyph-name="onehalf" unicode="&#xbd;" horiz-adv-x="2458" 
d="M2326 245q62 0 89.5 -30.5t13.5 -92.5q-14 -69 -53.5 -95.5t-101.5 -26.5h-664q-38 0 -62.5 11.5t-38.5 30.5t-17 44t3 53q9 44 36.5 87.5t75.5 88t117.5 90t162.5 93.5q104 54 174 89.5t114 66.5t66.5 64.5t33.5 83.5q6 31 -3 55.5t-29.5 42t-50.5 27t-66 9.5
q-73 0 -136 -34t-106 -108q-12 -23 -24 -40t-26.5 -28.5t-33.5 -17.5t-46 -6q-28 0 -50.5 6t-37.5 19t-20.5 34.5t0.5 51.5q16 75 67 139t125.5 111t166.5 74t190 27q106 0 184.5 -24.5t127 -68t67 -103t3.5 -128.5q-17 -80 -46 -138.5t-72.5 -104.5t-103.5 -82.5
t-138 -73.5q-83 -39 -146 -68.5t-109 -53t-74.5 -41.5t-40.5 -33h479zM2008 1968q10 13 22.5 27t27.5 25t33 18t39 7q22 0 40 -8t29.5 -21t16 -30t0.5 -34q-4 -20 -16.5 -43t-32.5 -49l-1372 -1850q-10 -13 -23 -26.5t-28.5 -24.5t-33.5 -18t-38 -7q-23 0 -40.5 8t-29 21
t-16 29.5t-0.5 33.5q9 41 49 93zM635 936q36 165 64 298q12 57 23.5 112t21 99t16 73.5t7.5 35.5q-61 -26 -120 -32.5t-102 -6.5q-44 0 -65 25t-10 76q6 28 17 46t28.5 29.5t43.5 18t62 12.5l67 11q49 8 82.5 28t57.5 46t43 53.5t40 50.5t47 38t66 15q55 0 79.5 -23.5
t10.5 -88.5l-195 -916q-7 -33 -19 -59.5t-32 -45t-49.5 -29t-71.5 -10.5q-77 0 -101.5 39.5t-10.5 104.5z" />
    <glyph glyph-name="threequarters" unicode="&#xbe;" horiz-adv-x="2458" 
d="M2145 854h-6l-394 -394h316zM2016 248h-438q-35 0 -58 11t-36.5 28t-17 37.5t0.5 39.5q8 39 20.5 61.5t27.5 36.5l643 623q18 18 36.5 32t39.5 23.5t46 15t58 5.5q66 0 100.5 -34t22.5 -91l-123 -576h66q45 0 65 -29.5t10 -76.5q-11 -48 -43 -77t-77 -29h-66l-31 -145
q-5 -26 -16 -47t-30.5 -36t-47.5 -23t-68 -8t-65 8t-38 23t-15 36t3 47zM2181 1968q10 13 22.5 27t27.5 25t33 18t39 7q22 0 40 -8t29.5 -21t16 -30t0.5 -34q-4 -20 -16.5 -43t-32.5 -49l-1372 -1850q-10 -13 -23 -26.5t-28.5 -24.5t-33.5 -18t-38 -7q-23 0 -40.5 8t-29 21
t-16 29.5t-0.5 33.5q5 21 17.5 44t32.5 49zM357 1064q11 51 53 82.5t104 31.5q39 0 58.5 -12.5t29.5 -31.5t18 -40.5t25 -40.5t49 -31.5t91 -12.5q50 0 89.5 12t68 31.5t46 45.5t23.5 55q6 27 4 50t-15.5 41t-40 30.5t-71.5 17.5q-18 2 -42.5 6t-45.5 13.5t-33 27.5t-6 48
q8 36 22.5 58t37 34.5t52.5 17.5t68 7q60 5 96 37t47 83q6 27 -2.5 48t-27.5 35t-46.5 21t-60.5 7q-51 0 -85.5 -11.5t-59.5 -28.5t-43.5 -37.5t-38 -37.5t-44 -28.5t-59.5 -11.5q-26 0 -47.5 5t-36 16.5t-20.5 30.5t0 46q16 75 70 129t126.5 89t152.5 51.5t147 16.5
q120 0 198.5 -27.5t121.5 -72.5t54.5 -102t-1.5 -116q-17 -78 -72 -134.5t-145 -91.5l-1 -6q50 -11 82 -34t49 -55.5t19.5 -73.5t-7.5 -87q-21 -97 -74.5 -169t-129.5 -119.5t-169.5 -71t-194.5 -23.5q-85 0 -148 14.5t-107 38t-71.5 54t-41.5 62t-17 61.5t2 53z" />
    <glyph glyph-name="multiply" unicode="&#xd7;" horiz-adv-x="1614" 
d="M1499 416q19 -24 27 -51t2 -57q-8 -38 -28.5 -69.5t-49 -54.5t-64 -35.5t-72.5 -12.5q-29 0 -52.5 16t-40.5 36l-295 373l-455 -373q-25 -20 -55.5 -36t-59.5 -16q-38 0 -67.5 12.5t-48.5 35.5t-25.5 54.5t1.5 69.5q6 30 26 57t49 51l453 376l-293 375q-19 25 -27.5 51.5
t-1.5 57.5q8 38 28 69.5t48.5 54t63.5 35t73 12.5q29 0 52.5 -15.5t40.5 -35.5l296 -373l454 373q26 20 56 35.5t59 15.5q37 0 67 -12.5t49 -35t26 -54t-1 -69.5q-7 -31 -26.5 -57.5t-48.5 -51.5l-453 -375z" />
    <glyph glyph-name="divide" unicode="&#xf7;" horiz-adv-x="1667" 
d="M648 221q10 48 38 91t66.5 75.5t84 52t91.5 19.5q48 0 86 -19.5t63 -52t34.5 -75.5t-0.5 -91q-9 -43 -36 -83t-65 -70.5t-83 -49t-91 -18.5t-85 17t-65 47t-37 70.5t-1 86.5zM892 1368q10 48 38 90.5t66 74.5t83.5 50.5t91.5 18.5q48 0 86.5 -18.5t63.5 -50.5t34.5 -74.5
t-0.5 -90.5q-10 -46 -37 -87.5t-65.5 -73t-83.5 -50t-91 -18.5t-84.5 18.5t-64.5 50t-36.5 73t-0.5 87.5zM1604 952q38 0 70 -8.5t53 -27t29 -49t-1 -74.5q-9 -45 -30.5 -75.5t-50.5 -49.5t-64.5 -27.5t-73.5 -8.5h-1136q-39 0 -71 8.5t-53 27.5t-28.5 49.5t1.5 75.5
q9 44 30 74.5t50 49t64.5 27t74.5 8.5h1136z" />
    <glyph glyph-name="kokaithai" unicode="&#xe01;" horiz-adv-x="1802" 
d="M1444 1032q12 58 6 115.5t-40 103.5t-99 74.5t-171 30.5q-81 1 -147 -14.5t-115.5 -40.5t-83.5 -55t-50 -58q42 -47 53.5 -120.5t-8.5 -166.5l-152 -714q-9 -43 -33.5 -79t-58.5 -62.5t-75 -41t-84 -14.5t-77.5 14.5t-57.5 41t-32 62.5t0 79l153 718q8 36 5 74.5
t-25 75.5q-21 34 -32.5 58t-12 46t10 46.5t33.5 59.5q58 89 140 170.5t189 144t241 99.5t295 37q151 0 263 -27.5t190 -76t125 -116t68 -146.5t19 -167t-21 -179l-173 -813q-9 -44 -33.5 -80.5t-59 -63.5t-76.5 -42t-85 -15q-44 0 -79 15t-58 42t-31.5 63.5t0.5 80.5z" />
    <glyph glyph-name="khokhaithai" unicode="&#xe02;" horiz-adv-x="1536" 
d="M976 666l382 873q18 42 49 74.5t69.5 53t81 28.5t83.5 1q42 -7 72 -29t45.5 -54.5t15 -72.5t-19.5 -82l-561 -1176q-29 -65 -66.5 -120t-83.5 -95.5t-100.5 -63.5t-117.5 -23q-60 0 -104 23.5t-73.5 64.5t-44 96t-16.5 118l-56 1061h-58q-35 0 -62.5 13t-45.5 36
t-25 53.5t1 65.5q7 35 26.5 65.5t47 53.5t61 36t68.5 13h286q35 0 60 -13t41 -35.5t24 -53t8 -66.5z" />
    <glyph glyph-name="khokhuatthai" unicode="&#xe03;" horiz-adv-x="1630" 
d="M894 1569q16 29 39.5 53t51 41.5t59 27.5t63.5 10q41 0 73.5 -15.5t53.5 -42.5t29 -63t-1 -77q-28 -110 -58.5 -191t-69 -145.5t-88.5 -118.5t-118 -110q-41 -34 -70 -75.5t-49.5 -87t-33.5 -92t-22 -89.5q-14 -63 -8 -112t28 -82t59 -50.5t86 -17.5q46 0 88 13
t76.5 41.5t60 74.5t39.5 112l197 926q9 43 33.5 79.5t58.5 63t75 41.5t84 15t78 -15t58 -41.5t31.5 -63t-0.5 -79.5l-203 -954q-32 -152 -107 -262.5t-177 -182.5t-223.5 -106.5t-247.5 -34.5q-85 0 -162 16.5t-141.5 49.5t-114 82.5t-78.5 114.5t-36 146t13 177
q15 67 28 125.5t30 110t39.5 97t55 87.5t77.5 81.5t107 79.5q22 14 45 30q20 14 43 29.5t45 31.5q-8 -3 -22 -6.5t-28 -5.5t-26 -3.5t-17 -1.5q-26 0 -58 4t-66 14.5t-67.5 29.5t-61 49t-47.5 72.5t-26 100.5q-4 36 7 71.5t34 66t56 53.5t74 33q38 10 73 5t62 -21.5
t44 -44.5t20 -65q2 -30 18 -47.5t43 -17.5q29 0 51.5 18t40.5 48z" />
    <glyph glyph-name="khokhwaithai" unicode="&#xe04;" horiz-adv-x="1860" 
d="M1075 682q-100 -18 -177 -57.5t-133 -97.5t-92.5 -134t-56.5 -168l-8 -38q-9 -43 -33 -79t-58 -62.5t-74.5 -41t-83.5 -14.5t-77 14.5t-56.5 41t-31 62.5t0.5 79l171 804q20 92 55 181.5t88 170.5t126.5 149t170.5 118t219 78t273 28q149 0 258.5 -28t184.5 -78t119 -118
t62.5 -149t15 -170.5t-23.5 -181.5l-171 -804q-9 -43 -33.5 -79t-58.5 -62.5t-75 -41t-84 -14.5t-77.5 14.5t-57.5 41t-32 62.5t0 79l178 837q12 58 5.5 117.5t-38.5 107t-92.5 77.5t-155.5 30t-170.5 -30t-130.5 -77.5t-89 -107t-46 -117.5l-33 -156q72 59 147.5 99
t163.5 63q38 9 72 3t59.5 -24t41 -46t16.5 -64q1 -37 -12.5 -72.5t-37.5 -65.5t-57 -51t-71 -28z" />
    <glyph glyph-name="khokhonthai" unicode="&#xe05;" horiz-adv-x="1876" 
d="M1759 187q-9 -43 -33 -79t-58 -62.5t-75 -41t-84 -14.5t-77.5 14.5t-57.5 41t-32 62.5t0 79l191 898q6 29 10.5 62t4.5 65t-6 61t-20 50l-247 -139q-98 -61 -176 0l-192 135q-19 -25 -35.5 -54.5t-30 -61t-23 -62t-15.5 -56.5l-50 -237q71 59 147 99t164 63q38 9 72 3
t59.5 -24t40.5 -46t16 -64q1 -37 -12 -72.5t-37 -65.5t-57 -51t-71 -28q-100 -18 -177 -57.5t-133 -97.5t-93 -134t-56 -168l-4 -18q-9 -43 -33.5 -79t-58.5 -62.5t-75 -41t-84 -14.5t-77.5 14.5t-57 41t-31.5 62.5t0 79l178 843q21 100 59 196.5t98.5 182t148 155.5
t207.5 116q19 7 46.5 15t58.5 10t62.5 -4t58.5 -26l156 -121l216 122q34 19 65 24.5t57.5 3.5t47.5 -9.5t35 -13.5q102 -45 161.5 -114.5t86.5 -155t25 -183t-24 -198.5z" />
    <glyph glyph-name="khorakhangthai" unicode="&#xe06;" horiz-adv-x="1815" 
d="M1786 602q-30 -141 -84 -258.5t-142.5 -202t-217 -131.5t-306.5 -47q-68 0 -126.5 17t-107.5 46.5t-87 68.5t-64 83q-9 -42 -32.5 -77t-56.5 -61t-73 -40.5t-82 -14.5t-75.5 14.5t-55.5 40.5t-30.5 61t0.5 77l92 432q14 66 25.5 117t26 93t34.5 77t51 68t74.5 66
t106.5 71q64 40 105 67.5t68 55.5q-18 -11 -45 -18t-47 -7q-26 0 -58 4t-66 14.5t-67.5 29.5t-61 49t-47.5 72.5t-26 100.5q-4 36 7 71.5t34 66t56 53.5t74 33q38 10 73 5t62 -21.5t44 -44.5t20 -65q2 -30 18 -47.5t43 -17.5q29 0 51.5 18t40.5 48q16 29 41.5 53t56 41.5
t64 27.5t65.5 10q41 0 75 -14t56.5 -40t31 -62.5t-0.5 -81.5l-33 -155q-15 -74 -49.5 -136t-81 -115t-101 -98.5t-110.5 -85.5q-42 -29 -71 -52.5t-48.5 -50.5t-33 -61t-23.5 -85q-14 -65 -1 -124.5t51.5 -106t102 -74t149.5 -27.5q52 0 98.5 17t84 48t63.5 74.5t37 97.5
l198 928q9 43 33.5 80t58.5 64t75.5 42t85.5 15q43 0 78.5 -15t58.5 -42t32 -64t0 -80z" />
    <glyph glyph-name="ngonguthai" unicode="&#xe07;" horiz-adv-x="1364" 
d="M1293 401q-25 -117 -78.5 -200.5t-127.5 -137t-164 -79t-187 -25.5q-98 0 -166 23t-112.5 66t-69 104.5t-36.5 138.5l-79 517q-6 39 5.5 77.5t36 72t60 59.5t78.5 40q42 15 82 14.5t71.5 -15t53 -42t27.5 -67.5l84 -591q4 -25 15 -35t30 -10q18 0 32 13t17 28l210 987
h-86q-35 0 -61.5 13.5t-43 36.5t-22 54t2.5 66q7 35 25.5 66t44.5 54t58.5 36.5t67.5 13.5h343q35 0 61.5 -13.5t43 -36.5t21.5 -54t-2 -66z" />
    <glyph glyph-name="chochanthai" unicode="&#xe08;" horiz-adv-x="1655" 
d="M1006 479q27 46 59 101t64.5 112.5t63 114.5t55.5 107.5t42 91.5t23 67q28 132 -24.5 207.5t-193.5 75.5q-92 0 -165.5 -44.5t-130.5 -129.5q-27 -40 -66 -65t-81.5 -35.5t-84.5 -6.5t-73 23q-35 20 -55 51t-24.5 67.5t8 76t42.5 77.5q64 80 144 144t174 109t199.5 69
t221.5 24q79 0 157 -12.5t147 -41t125 -75t90.5 -114t43.5 -158.5t-16 -209q-18 -83 -63.5 -184t-112 -218t-151.5 -249.5t-181 -278.5q-29 -45 -67.5 -81.5t-83.5 -62t-95 -39t-102 -13.5q-54 0 -99.5 13t-79.5 38t-56 62.5t-29 85.5l-66 439h-63q-36 0 -63 13.5t-43.5 37
t-22 54.5t2.5 67t26.5 67.5t45 55t59 37t68.5 13.5h269q36 0 58 -13.5t35.5 -37t20.5 -55t11 -67.5z" />
    <glyph glyph-name="chochingthai" unicode="&#xe09;" horiz-adv-x="1802" 
d="M1683 172q-9 -42 -32.5 -77.5t-56.5 -61t-73 -40t-82 -14.5t-76 15t-55.5 41.5t-30 62.5t0.5 78q-54 -46 -119.5 -85t-136 -67.5t-143.5 -44.5t-142 -16q-173 0 -277.5 47t-154.5 131.5t-53 202t27 258.5l32 148q9 43 33 79.5t58 63t75 41.5t84 15t78 -15t57.5 -41.5
t31.5 -63t0 -79.5l-38 -177q-11 -54 -2.5 -97.5t35.5 -74.5t71 -48t104 -17q102 0 183.5 31t142 86t100.5 130t59 162l61 287q12 57 8 114t-34 103t-90 74.5t-160 28.5q-69 0 -124 -10.5t-98 -29.5t-75.5 -45t-55.5 -56q-30 -36 -67.5 -59t-77.5 -32t-78.5 -3t-69.5 28
t-47.5 55t-17.5 71t13.5 77.5t44.5 74.5q57 66 131 120t165 92.5t199.5 59.5t234.5 21q153 0 264 -27.5t185.5 -76.5t117 -116t59.5 -147t12 -169t-24 -181z" />
    <glyph glyph-name="chochangthai" unicode="&#xe0a;" horiz-adv-x="1614" 
d="M1192 717q16 73 5.5 132t-43 100.5t-85.5 65.5t-123 29q-25 -30 -55.5 -62t-66.5 -73q-30 -31 -47.5 -56t-28 -49t-17 -50t-15.5 -58l-27 -127q-13 -63 -4 -113t35 -85t66.5 -53.5t91.5 -18.5q46 0 90 14.5t81 44.5t65 77.5t42 113.5zM509 1658q45 14 86.5 23t77.5 14
t64.5 7t46.5 2q107 0 186 -26.5t123.5 -79.5t51 -132t-32.5 -184q193 37 275 244q17 43 47.5 78t68.5 58.5t81 33t85 2.5q43 -7 75 -28t49 -52.5t17 -72.5t-19 -89q-39 -97 -104.5 -179.5t-166.5 -137.5q52 -37 76 -91.5t30 -114t-0.5 -116.5t-15.5 -100l-37 -172
q-21 -100 -63.5 -182.5t-100.5 -148t-128.5 -113.5t-148.5 -79.5t-161 -47t-165 -15.5q-85 0 -163.5 16.5t-145 49.5t-118.5 82.5t-83.5 114.5t-40 146t11.5 177l28 131q14 65 29 114t32.5 87.5t38.5 69.5t47 60t58.5 59.5t72.5 68.5q54 52 90 91t47 77q9 27 -3.5 44
t-40.5 17q-46 0 -125 -19q-35 -9 -66.5 -5t-56 18t-40 38.5t-18.5 56.5q-3 33 7 65t30 60t48.5 48.5t63.5 31.5z" />
    <glyph glyph-name="sosothai" unicode="&#xe0b;" horiz-adv-x="1655" 
d="M1245 713q14 67 7 127.5t-33.5 107t-71 75.5t-104.5 34q-25 -31 -54 -59.5t-61 -59.5q-38 -35 -67 -77t-50 -87t-35 -91t-23 -89q-14 -63 -5 -112t34.5 -82t64.5 -50.5t87 -17.5t92.5 13t82 41.5t65 74.5t41.5 112zM1261 1503q-17 -61 -35.5 -112.5t-37.5 -96.5
q47 9 85.5 27.5t70 47t56.5 68.5t45 93q16 42 46 76.5t67.5 57t79.5 32t83 2.5q43 -7 74 -27t47.5 -50.5t16.5 -71t-19 -88.5q-20 -50 -44 -94t-56 -82.5t-73.5 -73t-96.5 -64.5q37 -24 60.5 -57t36 -71t16.5 -80t2.5 -82t-7 -77.5t-11.5 -66.5l-36 -168
q-22 -101 -64.5 -184t-101 -148t-130 -113t-150.5 -79.5t-163 -46.5t-167 -15q-84 0 -162 16.5t-144 49.5t-118 82.5t-83 114.5t-39.5 146t11.5 177q15 67 28 125.5t30 110t39.5 97t55 87.5t77.5 81.5t107 79.5q25 16 50 33q21 14 43.5 31.5t38.5 34.5q-18 -11 -45 -18
t-47 -7q-26 0 -58 4t-66 14.5t-67.5 29.5t-61 49t-47.5 72.5t-26 100.5q-4 36 7 71.5t34 66t56 53.5t74 33q38 10 73 5t62 -21.5t44 -44.5t20 -65q2 -30 18 -47.5t43 -17.5q29 0 51.5 18t40.5 48q16 29 39.5 53t52 41.5t60 27.5t63.5 10q41 0 74.5 -14t55 -39.5t28 -62
t-5.5 -82.5z" />
    <glyph glyph-name="chochoethai" unicode="&#xe0c;" horiz-adv-x="2666" 
d="M1755 745q-19 -87 -13.5 -162t34 -130t81 -86t127.5 -31q40 0 75 12.5t64 40t51 73t36 111.5l195 915q9 43 33.5 80t59 64t76 42t85.5 15q43 0 78.5 -15t58 -42t31.5 -64t0 -80l-189 -886q-32 -152 -81 -271t-126 -200.5t-187 -124.5t-265 -43q-62 0 -118 18.5t-103.5 48
t-83.5 67t-57 75.5q-9 -42 -32.5 -77t-56.5 -60.5t-73 -40t-82 -14.5t-75.5 14.5t-55.5 40.5t-30.5 61.5t0.5 77.5l182 854q12 57 7 113.5t-34.5 101.5t-87.5 74t-153 31q-74 1 -133 -12.5t-105 -37t-78 -53.5t-51 -61q85 -100 45 -287l-122 -573h40q33 0 58.5 -13t41 -35
t20.5 -51.5t-2 -62.5t-24.5 -62.5t-42.5 -51.5t-55.5 -35t-63.5 -13h-305q-33 0 -58.5 13t-41 35t-20.5 51.5t2 62.5l157 739q8 36 5.5 76.5t-24.5 77.5q-21 34 -32.5 58t-12 46t10 46.5t33.5 59.5q58 89 137 170.5t182.5 144t232 99.5t284.5 37q146 0 253 -27.5t181 -76.5
t117.5 -116t62 -146t15 -167t-22.5 -179z" />
    <glyph glyph-name="yoyingthai" unicode="&#xe0d;" horiz-adv-x="2666" 
d="M388 901q8 36 5.5 76.5t-24.5 77.5q-21 34 -32.5 58t-12 46t10 46.5t33.5 59.5q58 89 137 170.5t182.5 144t232 99.5t284.5 37q146 0 253 -27.5t181 -76.5t117.5 -116t62 -146t15 -167t-22.5 -179l-56 -263q-28 -133 3 -205.5t115 -72.5q75 0 141.5 37.5t120 100t92 144
t57.5 168.5l122 575q9 43 33.5 80t59 64t76 42t85.5 15q43 0 78.5 -15t58 -42t31.5 -64t0 -80l-264 -1241q-36 -170 -110 -320t-186.5 -262t-265.5 -176.5t-346 -64.5q-92 0 -175 20.5t-150.5 61.5t-117.5 102.5t-75 142.5q-11 45 -5 84t25.5 71t51 57t72.5 43
q40 18 80 19.5t73 -10.5t57.5 -37.5t34.5 -61.5t30.5 -63.5t47.5 -46.5t58 -28.5t62 -9.5q92 0 160.5 30.5t116.5 79t76.5 108t41.5 118.5l34 162q-84 -62 -182.5 -98.5t-206.5 -36.5q-160 0 -258.5 42t-146.5 123.5t-50.5 200.5t30.5 273l55 258q12 58 7.5 115.5t-34 103.5
t-87.5 74.5t-153 30.5q-68 1 -126 -13t-105 -37.5t-82.5 -52.5t-56.5 -57q42 -50 54.5 -126t-7.5 -169l-122 -573h40q33 0 58.5 -13t41 -35t20.5 -51.5t-2 -62.5t-24.5 -62.5t-42.5 -51.5t-55.5 -35t-63.5 -13h-305q-33 0 -58.5 13t-41 35t-20.5 51.5t2 62.5z" />
    <glyph glyph-name="dochadathai" unicode="&#xe0e;" horiz-adv-x="1872" 
d="M1641 -350q-11 -52 -40.5 -97.5t-71 -79.5t-91.5 -54t-102 -20q-55 0 -98 22t-69 60q-18 25 -43 47t-59.5 38.5t-80 26.5t-104.5 10q-65 0 -121.5 -13t-109.5 -36.5t-105 -57t-108 -73.5q-27 -20 -57.5 -28t-59 -5.5t-52 16t-38.5 37.5t-17 52.5t7 57t28 55t45 48.5
q70 59 149 108.5t163 85.5t171 56t174 20q107 0 183 -23t128 -50l251 1179q12 58 6 115.5t-39.5 103.5t-99 74.5t-170.5 30.5q-81 1 -147 -14.5t-116 -40.5t-83.5 -55t-50.5 -58q21 -23 35 -49t19.5 -59.5t2.5 -77t-15 -101.5l-157 -739q-7 -33 -24.5 -62.5t-42.5 -51.5
t-55.5 -35t-63.5 -13h-300q-33 0 -58.5 13t-41 35t-20.5 51.5t2 62.5t24.5 62.5t42 51.5t55.5 35t64 13h38l124 581q8 36 5 74.5t-25 75.5q-21 34 -32.5 58t-12 46t10 46.5t33.5 59.5q58 89 140 170.5t189 144t241 99.5t295 37q151 0 263 -27.5t190 -76t124.5 -116
t67.5 -146.5t19 -167t-21 -179z" />
    <glyph glyph-name="topatakthai" unicode="&#xe0f;" horiz-adv-x="1872" 
d="M1635 -378q-11 -51 -39.5 -94t-69 -74.5t-89 -49.5t-99.5 -18q-54 0 -96.5 20t-56.5 64q-8 24 -16.5 46t-20 38.5t-27.5 26t-38 9.5q-35 0 -66 -24.5t-53 -60.5q-16 -26 -38.5 -48t-49 -37.5t-55.5 -24.5t-59 -9q-60 0 -100.5 34.5t-49.5 88.5q-6 36 -24.5 60.5
t-56.5 24.5q-39 0 -75 -26.5t-59 -64.5q-26 -41 -59.5 -67.5t-69.5 -39.5t-72.5 -12t-69.5 16t-52 42t-24 60t4 70.5t32 73.5q43 68 96.5 117t113.5 81t125 47t132 15q48 0 88.5 -11t73.5 -29.5t59 -44t44 -54.5q27 27 61 51t71 42t76.5 28t77.5 10q56 0 94 -18.5t61 -43.5
l254 1196q12 58 6 115.5t-39.5 103.5t-99 74.5t-170.5 30.5q-81 1 -147 -14.5t-116 -40.5t-83.5 -55t-50.5 -58q21 -23 35 -49t19.5 -59.5t2.5 -77t-15 -101.5l-157 -739q-7 -33 -24.5 -62.5t-42.5 -51.5t-55.5 -35t-63.5 -13h-300q-33 0 -58.5 13t-41 35t-20.5 51.5t2 62.5
t24.5 62.5t42 51.5t55.5 35t64 13h38l124 581q8 36 5 74.5t-25 75.5q-21 34 -32.5 58t-12 46t10 46.5t33.5 59.5q58 89 140 170.5t189 144t241 99.5t295 37q151 0 263 -27.5t190 -76t124.5 -116t67.5 -146.5t19 -167t-21 -179z" />
    <glyph glyph-name="thothanthai" unicode="&#xe10;" horiz-adv-x="1647" 
d="M502 618q-36 0 -63 13.5t-43.5 37t-22 54.5t2.5 67t26.5 67.5t45 55t59 37t68.5 13.5h269q36 0 58 -13.5t35.5 -37t20.5 -55t11 -67.5l37 -311q27 46 59 101t64.5 112.5t63 114.5t55.5 107.5t42 91.5t23 67q28 132 -24.5 207.5t-193.5 75.5q-92 0 -165.5 -44.5
t-130.5 -129.5q-27 -40 -66 -65t-81.5 -35.5t-84.5 -6.5t-73 23q-35 20 -55 51t-24.5 67.5t8 76t42.5 77.5q64 80 144 144t174 109t199.5 69t221.5 24q65 0 129.5 -9t124.5 -28q29 10 53.5 33t44.5 52q29 40 68 65.5t81 36t83 5.5t74 -27q34 -21 52.5 -54.5t21.5 -73
t-10 -81.5t-43 -80q-31 -35 -67.5 -64t-79.5 -49q26 -65 31.5 -148t-16.5 -188q-18 -83 -62.5 -182.5t-110 -215t-149 -246.5t-179.5 -277q-29 -45 -68.5 -82.5t-85.5 -65t-97.5 -42.5t-103.5 -15q-54 0 -99.5 16t-80.5 45.5t-57.5 69.5t-30.5 88l-62 419h-63zM497 -574
q0 49 -18 78t-55 29q-35 0 -65 -25.5t-51 -67.5q-13 -28 -34.5 -49.5t-47 -35t-53.5 -17.5t-54 4q-26 7 -44 23.5t-26 39t-6.5 49.5t13.5 56q40 94 92.5 151.5t107.5 88.5t108.5 40.5t96.5 8.5q61 -3 109.5 -29t70.5 -69q16 18 37 36t45 31.5t50 22t52 8.5q49 0 83.5 -26
t49.5 -64q8 37 29 70t50.5 57.5t65.5 39t73 14.5t67 -12.5t50 -35t27.5 -54t-0.5 -68.5l-45 -213q-8 -37 -28 -68t-48.5 -53.5t-63 -35t-71.5 -12.5q-58 0 -98.5 33.5t-47.5 85.5q-5 35 -24 55.5t-52 20.5q-39 0 -72.5 -31t-54.5 -79q-17 -37 -52 -61t-75 -24t-65 25t-26 63
z" />
    <glyph glyph-name="thonangmonthothai" unicode="&#xe11;" horiz-adv-x="1815" 
d="M1698 185q-9 -43 -33.5 -79.5t-59 -63t-76 -41.5t-84.5 -15t-78.5 15t-58.5 41.5t-32 63t0 79.5l222 1044q4 18 8 37t4.5 34.5t-3.5 25t-16 9.5q-17 0 -55 -22.5t-90.5 -60.5t-117 -89.5t-133.5 -109.5q-83 -71 -141 -125.5t-98 -106t-64.5 -106.5t-39.5 -125l-85 -401
q-9 -43 -33.5 -79.5t-58.5 -63t-75.5 -41.5t-84.5 -15t-78 15t-57.5 41.5t-31 63t0.5 79.5l79 372q13 63 25.5 111.5t27 87.5t34 72t47.5 67t67 72t92 86q66 59 113.5 99.5t78.5 68.5q-11 -5 -24 -9t-25.5 -6.5t-24 -4t-17.5 -1.5q-26 0 -57.5 4t-64.5 14.5t-65.5 29.5
t-59 49t-45.5 72.5t-25 100.5q-4 36 7 71.5t34 66t56 53.5t73 33q38 10 73 5t62 -21.5t44.5 -44.5t20.5 -65q2 -30 18 -47.5t43 -17.5q29 0 51.5 18t40.5 48q16 29 41.5 53.5t56 42t64 27.5t65.5 10q34 0 63 -10t51 -28t35.5 -44t16.5 -58q140 85 239.5 119.5t164.5 34.5
q94 0 146.5 -28t74 -80t17.5 -125t-23 -164z" />
    <glyph glyph-name="thophuthaothai" unicode="&#xe12;" horiz-adv-x="2839" 
d="M1929 755q-19 -89 -13.5 -164t34 -129.5t81 -85t127.5 -30.5q41 0 76.5 12.5t64 40t50 73t35.5 111.5l191 896q9 43 34 81.5t59.5 67.5t76.5 45.5t86 16.5q43 0 78 -16.5t57.5 -45.5t31 -67.5t-0.5 -81.5l-184 -867q-33 -152 -82 -271t-127.5 -200.5t-192.5 -124.5
t-275 -43q-57 0 -109.5 17t-97.5 46t-80.5 66.5t-57.5 79.5l-2 -12q-9 -42 -32.5 -76.5t-56 -60t-72 -39.5t-81.5 -14t-75 14t-55 39.5t-30 60.5t1 77l187 882q17 76 2 141t-66 114l-201 -116q-45 -23 -91.5 -26t-88.5 26l-155 121q-75 -50 -118.5 -117t-60.5 -143
l-113 -531l273 236h-17q-27 0 -48 10t-34.5 27.5t-19 41t0.5 50.5t20.5 50.5t35.5 41t46.5 27.5t52.5 10h340q31 0 56 -11.5t41 -31t22 -46t-1 -57.5q-6 -29 -19.5 -56.5t-36.5 -47.5l-816 -713q-40 -35 -89 -55t-101 -20q-50 0 -90 15.5t-66 44t-36.5 68.5t0.5 90l177 834
q21 100 63 196.5t108 182t158 155.5t212 116q19 7 46.5 15t58.5 10t62.5 -4t58.5 -26l156 -121l216 122q34 19 65 24.5t57.5 3.5t47.5 -9.5t35 -13.5q102 -45 164.5 -114.5t93 -155t32 -183t-20.5 -198.5z" />
    <glyph glyph-name="nonenthai" unicode="&#xe13;" horiz-adv-x="2666" 
d="M389 905q8 36 5 74.5t-25 75.5q-21 34 -32.5 58t-12 46t10 46.5t33.5 59.5q58 89 137 170.5t182.5 144t232 99.5t284.5 37q146 0 253 -27.5t181 -76.5t117.5 -116t62 -146t15 -167t-22.5 -179l-90 -421q-14 -66 -11.5 -111.5t19.5 -73t47 -40t72 -12.5q75 0 140 31
t117 86t89 130t56 162l157 737q9 43 33.5 80t58.5 64t75.5 42t85.5 15q43 0 78.5 -15t58.5 -42t32 -64t0 -80l-281 -1321q-9 -42 -32.5 -77t-56.5 -60.5t-72.5 -39.5t-81.5 -14t-76 14t-56.5 39.5t-31 60t0.5 76.5l2 12q-41 -43 -91 -81t-104.5 -66.5t-113 -45t-116.5 -16.5
q-160 0 -256.5 43t-142 124.5t-46 200.5t32.5 271l89 420q12 57 7 113.5t-34.5 102t-87.5 74t-153 30.5q-68 1 -126 -13t-105 -37.5t-82.5 -52.5t-56.5 -57q42 -50 55 -124t-7 -167l-123 -577h40q33 0 58.5 -13t41 -35t20.5 -51.5t-2 -62.5t-24.5 -62.5t-42.5 -51.5
t-55.5 -35t-63.5 -13h-305q-33 0 -58.5 13t-41 35t-20.5 51.5t2 62.5z" />
    <glyph glyph-name="dodekthai" unicode="&#xe14;" horiz-adv-x="1925" 
d="M1570 1028q12 58 3.5 117t-44.5 105.5t-103 76t-171 29.5q-106 0 -187 -29.5t-138.5 -76t-92 -105.5t-46.5 -117l-106 -500l283 230h-29q-27 0 -48 10t-34.5 27.5t-19 41t0.5 50.5t20.5 50.5t35.5 41t46.5 27.5t52.5 10h348q31 0 56 -11.5t41 -31t22 -46t-1 -57.5
q-6 -29 -19.5 -56t-42.5 -53l-830 -710q-38 -34 -85.5 -53.5t-98.5 -19.5q-48 0 -87.5 15t-65 43t-35 67t0.5 87l171 805q19 92 56 181.5t93 169.5t133 148t177.5 117t226 77t278.5 28q150 0 262.5 -28t191 -77t126 -117t69.5 -148t20.5 -169.5t-20.5 -181.5l-172 -809
q-9 -43 -33 -79.5t-58 -63t-75.5 -41.5t-84.5 -15t-78 15t-57.5 41.5t-31 63t0.5 79.5z" />
    <glyph glyph-name="totaothai" unicode="&#xe15;" horiz-adv-x="1925" 
d="M1808 186q-9 -43 -33 -79.5t-58 -63t-75.5 -41.5t-84.5 -15t-78 15t-57.5 41.5t-31 63t0.5 79.5l186 877q7 34 7.5 69t-7 68t-23.5 63.5t-41 54.5l-201 -116q-45 -22 -91 -25t-89 25l-155 121q-75 -50 -119.5 -121t-59.5 -139l-113 -535l283 230h-29q-27 0 -48 10
t-34.5 27.5t-19 41t0.5 50.5t20.5 50.5t35.5 41t46.5 27.5t52.5 10h348q31 0 56 -11.5t41 -31t22 -46t-1 -57.5q-6 -29 -19.5 -56t-42.5 -53l-830 -710q-38 -34 -85.5 -53.5t-98.5 -19.5q-48 0 -87.5 15t-65 43t-35 67t0.5 87l178 840q21 100 63 196.5t108 182t158 155.5
t212 116q19 7 46.5 15t58.5 10t62.5 -4t58.5 -26l156 -121l216 122q34 19 65 24.5t57.5 3.5t47.5 -9.5t35 -13.5q102 -45 164.5 -114.5t93 -155t32 -183t-20.5 -198.5z" />
    <glyph glyph-name="thothungthai" unicode="&#xe16;" horiz-adv-x="1802" 
d="M332 0q-33 0 -58.5 13t-41 35t-20.5 51.5t2 62.5l158 743q6 28 6 57.5t-9.5 58.5t-31.5 57t-60 52q32 71 78.5 142t108.5 136t139 121t170.5 97.5t204 65.5t238.5 24q151 0 263 -27.5t190 -76t125 -116t68 -146.5t19 -167t-21 -179l-173 -815q-9 -44 -33.5 -80.5
t-59 -63.5t-76.5 -42t-85 -15q-44 0 -79 15t-58 42t-31.5 63.5t0.5 80.5l179 843q12 58 6 115.5t-40 103.5t-99 74.5t-171 30.5q-81 1 -147 -14.5t-115.5 -40.5t-83.5 -55t-50 -58q42 -47 51.5 -120.5t-10.5 -166.5l-123 -577h40q33 0 58.5 -13t41 -35t20.5 -51.5t-2 -62.5
t-24.5 -62.5t-42.5 -51.5t-55.5 -35t-63.5 -13h-302z" />
    <glyph glyph-name="thothahanthai" unicode="&#xe17;" horiz-adv-x="1802" 
d="M1685 179q-9 -43 -33.5 -79.5t-58 -63t-74.5 -41.5t-84 -15t-77.5 15t-57 41.5t-30.5 63t1 79.5l194 917q26 119 -26.5 178t-180.5 59q-101 0 -183 -30.5t-144 -85t-102.5 -129.5t-59.5 -164l-158 -745q-9 -43 -33.5 -79.5t-58.5 -63t-75.5 -41.5t-84.5 -15t-78 15
t-57.5 41.5t-30.5 63t1 79.5l284 1339q9 42 32 77t55.5 60.5t72 39.5t81.5 14t75.5 -14t55 -39.5t30 -60.5t-0.5 -77l-5 -25q125 103 254.5 158t256.5 55q172 0 282 -42t167.5 -121t66 -193t-21.5 -258z" />
    <glyph glyph-name="thothongthai" unicode="&#xe18;" horiz-adv-x="1712" 
d="M1347 1216q-11 40 -32.5 65.5t-52 41.5t-69 24t-81.5 13q-45 4 -91.5 1t-84.5 -13.5t-64.5 -28t-31.5 -41.5q-4 -19 13 -36.5t46.5 -34t67.5 -31.5t76 -27.5t71.5 -22.5t54.5 -16q101 -30 184 -58.5t147 -63t108 -77t67 -99.5t24.5 -131.5t-19.5 -172.5
q-21 -97 -64.5 -175t-105.5 -138t-138.5 -103t-162 -71t-177.5 -41t-184 -13q-141 0 -262.5 30.5t-204 95.5t-117.5 168t-5 247l33 153q9 43 33 79.5t58 63t75 41.5t84 15t78 -15t57.5 -41.5t31.5 -63t0 -79.5l-33 -153q-11 -51 7.5 -86.5t55 -58.5t85 -33.5t99.5 -10.5
q46 0 99 8.5t101 30.5t83.5 58t47.5 92q7 34 9 61.5t-6 52t-29 46t-60 43t-99 44t-145 48.5q-119 32 -220.5 72t-171 95t-100.5 130t-9 178q19 81 60.5 144.5t98.5 112t126.5 82t145.5 55t155.5 31t156.5 9.5q116 0 217 -18.5t179.5 -59t130.5 -104.5t72 -155
q8 -40 0.5 -80.5t-28.5 -76.5t-54.5 -65t-77.5 -45q-44 -17 -85.5 -16.5t-76 15t-60 42.5t-36.5 67z" />
    <glyph glyph-name="nonuthai" unicode="&#xe19;" horiz-adv-x="1802" 
d="M474 1499q9 43 33 79.5t57.5 63t74.5 41.5t84 15t77.5 -15t57 -41.5t31 -63t-0.5 -79.5l-193 -907q-12 -59 -3.5 -105t35.5 -77.5t71 -48t103 -16.5q101 0 183 30.5t143.5 85t102.5 129.5t60 164l158 745q9 43 33.5 79.5t58.5 63t75 41.5t84 15t78 -15t57.5 -41.5t31 -63
t-0.5 -79.5l-283 -1334q-9 -42 -32 -77t-55.5 -60.5t-72 -39.5t-81.5 -14t-75.5 14t-55 39.5t-30 60.5t0.5 77l4 20q-125 -103 -254.5 -158t-256.5 -55q-172 0 -282.5 42t-167.5 121t-66 193t22 258z" />
    <glyph glyph-name="bobaimaithai" unicode="&#xe1a;" horiz-adv-x="1802" 
d="M1793 688q-20 -92 -52.5 -181.5t-83 -170.5t-120 -149t-163 -118t-213 -78t-268.5 -28q-150 0 -258 28t-180.5 78t-112.5 118t-55.5 149t-10 170.5t25.5 181.5l173 813q9 43 32.5 79t57 62t74 41t83.5 15t77.5 -15t57 -41t31.5 -62t0 -79l-179 -842q-13 -60 -9.5 -119.5
t31.5 -107.5t85.5 -78t152.5 -30q94 0 163.5 30t117.5 78t77 107.5t42 119.5l179 842q9 43 33 79t58 62t75 41t84 15t78 -15t58 -41t32 -62t0 -79z" />
    <glyph glyph-name="poplathai" unicode="&#xe1b;" horiz-adv-x="1801" 
d="M1792 688q-20 -92 -52.5 -181.5t-83 -170.5t-120 -149t-163 -118t-213 -78t-268.5 -28q-150 0 -258 28t-180.5 78t-112.5 118t-55.5 149t-10 170.5t25.5 181.5l173 813q9 43 32.5 79t57 62t74 41t83.5 15t77.5 -15t57 -41t31.5 -62t0 -79l-179 -842q-13 -60 -9.5 -119.5
t31.5 -107.5t85.5 -78t152.5 -30q94 0 163.5 30t117.5 78t77 107.5t42 119.5l335 1577q9 43 33.5 79t58.5 62t75 41t84 15t77.5 -15t57.5 -41t32 -62t0 -79z" />
    <glyph glyph-name="phophungthai" unicode="&#xe1c;" horiz-adv-x="1929" 
d="M928 748q9 40 31.5 74t54 59t69.5 38.5t79 13.5q40 0 73 -13.5t54 -38.5t29 -59t-1 -74l-26 -125q-14 -63 -21.5 -117.5t-3.5 -95t21.5 -63.5t54.5 -23t71.5 56t60.5 177l200 942q9 43 33.5 79.5t58.5 63t75 41.5t84 15t78 -15t58 -41.5t31.5 -63t-0.5 -79.5l-214 -1007
q-29 -135 -82.5 -235t-127.5 -165t-165.5 -97t-195.5 -32q-112 0 -194 36.5t-127 111.5q-70 -69 -163.5 -108.5t-207.5 -39.5q-106 0 -185.5 32t-127 97t-59.5 165t17 235l208 978q9 43 33.5 81t59 66.5t76 45t84.5 16.5h289q36 0 63 -13.5t43.5 -37t21.5 -54.5t-2 -67
q-8 -36 -26.5 -67t-45 -54.5t-59 -37t-68.5 -13.5h-81l-165 -778q-26 -120 -12.5 -176.5t57.5 -56.5q34 0 59 23t44.5 63.5t34 95t28.5 117.5z" />
    <glyph glyph-name="fofathai" unicode="&#xe1d;" horiz-adv-x="1929" 
d="M928 748q9 40 31.5 74t54 59t69.5 38.5t79 13.5q40 0 73 -13.5t54 -38.5t29 -59t-1 -74l-26 -125q-14 -63 -21.5 -117.5t-3.5 -95t21.5 -63.5t54.5 -23t71.5 56t60.5 177l356 1677q9 43 33.5 79.5t58.5 63t75.5 41.5t84.5 15t78 -15t57.5 -41.5t31 -63t-0.5 -79.5
l-370 -1742q-29 -135 -82.5 -235t-127.5 -165t-165.5 -97t-195.5 -32q-112 0 -194 36.5t-127 111.5q-70 -69 -163.5 -108.5t-207.5 -39.5q-106 0 -185.5 32t-127 97t-59.5 165t17 235l208 978q9 43 33.5 81t59 66.5t76 45t84.5 16.5h289q36 0 63 -13.5t43.5 -37t21.5 -54.5
t-2 -67q-8 -36 -26.5 -67t-45 -54.5t-59 -37t-68.5 -13.5h-81l-165 -778q-26 -120 -12.5 -176.5t57.5 -56.5q34 0 59 23t44.5 63.5t34 95t28.5 117.5z" />
    <glyph glyph-name="phophanthai" unicode="&#xe1e;" horiz-adv-x="2249" 
d="M1825 136q-17 -36 -43.5 -64.5t-59.5 -49t-70.5 -31.5t-76.5 -11t-71 11.5t-56 32t-38 49.5t-17 64l-68 821l-413 -822q-18 -35 -44.5 -64t-59.5 -49.5t-70 -31.5t-76 -11t-72 11t-57 31.5t-38 49.5t-15 65l-73 1311q-2 43 13.5 83t44 73t68 56.5t84.5 33.5q46 10 87 4
t72.5 -26t50 -53t18.5 -76l5 -814l419 832q16 30 39 55.5t51.5 43.5t60.5 28.5t65 10.5t61 -10.5t48.5 -29t33 -44.5t15.5 -56l65 -822l346 806q19 43 51.5 76t72.5 53t84.5 26t86.5 -4q41 -10 70 -33.5t43.5 -56.5t12.5 -73t-23 -83z" />
    <glyph glyph-name="fofanthai" unicode="&#xe1f;" horiz-adv-x="2249" 
d="M1825 136q-17 -36 -43.5 -64.5t-59.5 -49t-70.5 -31.5t-76.5 -11t-71 11.5t-56 32t-38 49.5t-17 64l-68 821l-413 -822q-18 -35 -44.5 -64t-59.5 -49.5t-70 -31.5t-76 -11t-72 11t-57 31.5t-38 49.5t-15 65l-73 1311q-2 43 13.5 83t44 73t68 56.5t84.5 33.5q46 10 87 4
t72.5 -26t50 -53t18.5 -76l5 -814l419 832q16 30 39 55.5t51.5 43.5t60.5 28.5t65 10.5t61 -10.5t48.5 -29t33 -44.5t15.5 -56l65 -822l692 1541q18 43 50.5 76t72.5 53t84.5 26t86.5 -4q41 -10 70 -33.5t43.5 -56.5t13 -73t-22.5 -83z" />
    <glyph glyph-name="phosamphaothai" unicode="&#xe20;" horiz-adv-x="1872" 
d="M442 905q8 36 5 74.5t-25 75.5q-21 34 -32.5 58t-12 46t10 46.5t33.5 59.5q58 89 140 170.5t189 144t241 99.5t295 37q151 0 263 -27.5t190 -76t124.5 -116t67.5 -146.5t19 -167t-21 -179l-175 -823q-9 -44 -33.5 -80.5t-59 -63.5t-76.5 -42t-85 -15q-44 0 -79 15t-58 42
t-31.5 63.5t0.5 80.5l181 851q12 58 6 115.5t-39.5 103.5t-99 74.5t-170.5 30.5q-81 1 -147 -14.5t-116 -40.5t-83.5 -55t-50.5 -58q21 -23 35 -49t19.5 -59.5t2.5 -77t-15 -101.5l-157 -739q-7 -33 -24.5 -62.5t-42.5 -51.5t-55.5 -35t-63.5 -13h-300q-33 0 -58.5 13
t-41 35t-20.5 51.5t2 62.5t24.5 62.5t42 51.5t55.5 35t64 13h38z" />
    <glyph glyph-name="momathai" unicode="&#xe21;" horiz-adv-x="1802" 
d="M1771 586q-31 -144 -88 -258t-147.5 -193t-218.5 -121t-300 -42q-63 0 -123.5 14.5t-114.5 44t-99.5 73t-79.5 101.5l-7 -35q-9 -42 -32.5 -77t-56 -60.5t-72 -39.5t-81.5 -14t-75 14t-55 39.5t-30 60.5t1 77l282 1329q9 43 33 79.5t58 63t75 41.5t84 15t78 -15t58 -41.5
t31.5 -63t-0.5 -79.5l-158 -745q-19 -89 -10 -164t47.5 -129.5t107.5 -85t170 -30.5q58 0 109.5 16.5t92 48t68.5 77.5t40 105l193 907q9 43 33 79.5t57.5 63t74.5 41.5t84 15t77.5 -15t57 -41.5t31 -63t-0.5 -79.5z" />
    <glyph glyph-name="yoyakthai" unicode="&#xe22;" horiz-adv-x="1757" 
d="M1507 1502q9 43 33 79t57.5 62t74.5 41t84 15t77.5 -15t57 -41t31 -62t-0.5 -79l-192 -900q-33 -158 -116 -278.5t-199.5 -201.5t-258 -122t-292.5 -41q-93 0 -181 15t-164.5 46.5t-137 79t-98.5 112t-50 146.5t9 183q26 124 85.5 218t160.5 146q-35 34 -57.5 74.5
t-34.5 84t-13 89t8 88.5q18 87 55 153.5t86 115t107 81t119 52t121 28t113 8.5h137q36 0 65 -13.5t47.5 -37.5t25.5 -55.5t-1 -67.5t-28 -67.5t-49 -55.5t-63.5 -37.5t-70.5 -13.5h-84q-38 0 -68 -9t-51 -24.5t-34 -35.5t-17 -41q-6 -31 -1.5 -58t21 -48t44.5 -34t67 -16h83
q33 0 59 -12.5t43 -34t23 -50t-1 -61.5t-25.5 -61.5t-44.5 -49.5t-57 -33.5t-64 -12.5h-67q-34 -2 -66.5 -9.5t-61 -28t-51 -58.5t-35.5 -101q-12 -59 5.5 -104.5t56.5 -77t93.5 -48t115.5 -16.5q68 0 130 20t113.5 62t89 108t57.5 158z" />
    <glyph glyph-name="roruathai" unicode="&#xe23;" horiz-adv-x="1524" 
d="M1642 1341q5 -40 -7.5 -80.5t-37.5 -75t-61.5 -61.5t-79.5 -40t-82 -9.5t-70 21.5t-51.5 48t-24.5 70q-6 40 -22.5 68.5t-41 46.5t-55.5 26.5t-66 8.5q-34 0 -71 -7.5t-69.5 -23t-56.5 -40.5t-31 -60q-6 -28 6 -51t44 -46t85 -47t130 -53q159 -62 257 -123t149 -126.5
t60.5 -138t-8.5 -156.5q-31 -146 -104.5 -246.5t-177.5 -162.5t-232.5 -89t-269.5 -27q-111 0 -206.5 23t-168.5 71.5t-120.5 124t-63.5 180.5q-6 40 5 81.5t36 77.5t61 64t80 42q48 15 88 12.5t70.5 -20t50 -47.5t25.5 -70q10 -95 70 -141t164 -46q37 0 80 8t81.5 27
t68 51.5t40.5 81.5q7 36 -5.5 63.5t-46 52.5t-87 50t-126.5 56q-74 30 -142 60.5t-125 64t-101 72t-71 86.5t-35 106t8 131q19 89 58.5 159.5t94 124t120.5 91.5t138.5 62t148 35t148.5 11q113 0 208.5 -19.5t167 -63t116.5 -114.5t58 -174z" />
    <glyph glyph-name="ruthai" unicode="&#xe24;" horiz-adv-x="1769" 
d="M372 905q8 36 5 74.5t-25 75.5q-21 34 -32.5 58t-12 46t10 46.5t33.5 59.5q58 89 140 170.5t189 144t241 99.5t295 37q151 0 263 -27.5t190 -76t125 -116t68 -146.5t19 -167t-21 -179l-289 -1358q-9 -44 -33.5 -80.5t-58.5 -63.5t-76 -42t-85 -15q-44 0 -79 15t-58 42
t-32 63.5t0 80.5l295 1386q12 58 6 115.5t-40 103.5t-99 74.5t-171 30.5q-81 1 -147 -14.5t-115.5 -40.5t-83.5 -55t-50 -58q42 -47 51.5 -120.5t-10.5 -166.5l-123 -577h40q33 0 58.5 -13t41 -35t20.5 -51.5t-2 -62.5t-24.5 -62.5t-42.5 -51.5t-55.5 -35t-63.5 -13h-302
q-33 0 -58.5 13t-41 35t-20.5 51.5t2 62.5z" />
    <glyph glyph-name="lolingthai" unicode="&#xe25;" horiz-adv-x="1761" 
d="M1355 770q-77 -43 -150.5 -62.5t-135.5 -31.5l-150 -28t-136.5 -35t-104 -51.5t-52.5 -78.5q-11 -52 4.5 -87.5t47.5 -57t75 -30.5t88 -9q16 0 35 1t40 4q35 6 65 0t52.5 -21.5t34.5 -41.5t11 -60q-1 -33 -14 -64t-35 -56.5t-51 -43.5t-62 -25q-58 -12 -109.5 -18.5
t-102.5 -6.5q-123 0 -227.5 26t-175 85t-99 153.5t0.5 231.5q28 133 101.5 222.5t185.5 149t260.5 97t328.5 67.5q64 11 125.5 26t111 36.5t83.5 50.5t42 68q13 61 -4.5 96t-54 53t-86 22.5t-100.5 4.5q-54 0 -102.5 -8t-91 -27t-79.5 -51t-69 -81q-26 -39 -59 -68.5
t-72 -46.5t-81.5 -20t-85.5 11q-39 12 -62.5 41t-31 66.5t0.5 80t32 83.5q65 108 152.5 181t190.5 117t218.5 63t236.5 19q80 0 159 -9.5t149.5 -32.5t127.5 -61.5t93.5 -96t47.5 -137t-11 -183.5l-217 -1019q-9 -43 -33 -79t-58 -62.5t-74.5 -41t-83.5 -14.5t-77.5 14.5
t-57 41t-31 62.5t0.5 79z" />
    <glyph glyph-name="luthai" unicode="&#xe26;" horiz-adv-x="1872" 
d="M442 905q8 36 5 74.5t-25 75.5q-21 34 -32.5 58t-12 46t10 46.5t33.5 59.5q58 89 140 170.5t189 144t241 99.5t295 37q151 0 263 -27.5t190 -76t124.5 -116t67.5 -146.5t19 -167t-21 -179l-289 -1357q-9 -44 -33.5 -80.5t-58.5 -63.5t-76 -42t-85 -15q-44 0 -79 15
t-58 42t-32 63.5t0 80.5l295 1385q12 58 6 115.5t-39.5 103.5t-99 74.5t-170.5 30.5q-81 1 -147 -14.5t-116 -40.5t-83.5 -55t-50.5 -58q21 -23 35 -49t19.5 -59.5t2.5 -77t-15 -101.5l-157 -739q-7 -33 -24.5 -62.5t-42.5 -51.5t-55.5 -35t-63.5 -13h-300q-33 0 -58.5 13
t-41 35t-20.5 51.5t2 62.5t24.5 62.5t42 51.5t55.5 35t64 13h38z" />
    <glyph glyph-name="wowaenthai" unicode="&#xe27;" horiz-adv-x="1606" 
d="M770 -37q-116 0 -208 29t-159 82.5t-109 129.5t-60 169q-8 40 3 81.5t35.5 78t60.5 65t80 43.5t85 12.5t73 -20t53.5 -47.5t26.5 -71q12 -96 66 -143.5t129 -47.5q69 0 130.5 30.5t113 93.5t92 160.5t69.5 231.5q28 133 29 231t-23 162.5t-72.5 95.5t-117.5 31
q-38 0 -75.5 -12t-73.5 -35.5t-68.5 -59.5t-58.5 -84q-23 -41 -57 -71t-73.5 -47.5t-81.5 -20t-80 12.5t-62 43.5t-33 65t-2.5 78t31.5 81.5q57 93 133.5 169t167.5 129t194.5 82t214.5 29q187 0 311 -63.5t189.5 -179t74.5 -277.5t-33 -360t-120 -360t-192 -277
t-265 -177.5t-338 -62.5z" />
    <glyph glyph-name="sosalathai" unicode="&#xe28;" horiz-adv-x="1860" 
d="M1075 682q-100 -18 -177 -57.5t-133 -97.5t-92.5 -134t-56.5 -168l-8 -38q-9 -43 -33 -79t-58 -62.5t-74.5 -41t-83.5 -14.5t-77 14.5t-56.5 41t-31 62.5t0.5 79l171 804q20 92 55 181.5t88 170.5t126.5 149t170.5 118t219 78t273 28q101 0 182.5 -13t147.5 -37
q29 14 55 36.5t45 49.5q38 57 87 86.5t112 29.5q40 0 72 -15.5t52.5 -42t26.5 -61.5t-5 -75q-20 -72 -72.5 -122t-123.5 -88q27 -50 41.5 -105.5t18 -116t-2.5 -124t-20 -127.5l-171 -804q-9 -43 -33.5 -79t-58.5 -62.5t-75 -41t-84 -14.5t-77.5 14.5t-57.5 41t-32 62.5
t0 79l178 837q12 58 5.5 117.5t-38.5 107t-92.5 77.5t-155.5 30t-170.5 -30t-130.5 -77.5t-89 -107t-46 -117.5l-33 -156q72 59 147.5 99t163.5 63q38 9 72 3t59.5 -24t41 -46t16.5 -64q1 -37 -12.5 -72.5t-37.5 -65.5t-57 -51t-71 -28z" />
    <glyph glyph-name="sorusithai" unicode="&#xe29;" horiz-adv-x="1868" 
d="M1107 758q-38 0 -68.5 13t-50.5 36t-27.5 54.5t0.5 69.5l28 132q8 38 29 69.5t50.5 54.5t65.5 36t74 13q37 0 67.5 -12.5t50.5 -34.5t28.5 -52.5t1.5 -67.5h157l91 431q9 43 33.5 79.5t59 63t76 41.5t84.5 15t78.5 -15t58.5 -41.5t32 -63t0 -79.5l-91 -431h21
q32 0 56.5 -12.5t39 -33.5t19.5 -49.5t-2 -60.5t-24 -60.5t-40.5 -49.5t-53 -33t-61.5 -12h-21l-15 -70q-20 -92 -54 -181.5t-86 -170.5t-124.5 -149t-169 -118t-219.5 -78t-275 -28q-156 0 -268 28t-188 78t-119 118t-60.5 149t-13 170.5t24.5 181.5l172 812
q9 43 33.5 79.5t58.5 63t75 41.5t84 15t78 -15t57.5 -41.5t31 -63t-0.5 -79.5l-178 -841q-13 -60 -8 -119.5t36.5 -107.5t94.5 -78t166 -30t177 30t125 78t80 107.5t42 119.5l21 99h-340z" />
    <glyph glyph-name="sosuathai" unicode="&#xe2a;" horiz-adv-x="1761" 
d="M2033 1674q-19 -69 -68.5 -118.5t-117.5 -86.5q23 -54 27 -121t-14 -152l-217 -1019q-9 -43 -33 -79t-58 -62.5t-74.5 -41t-83.5 -14.5t-77.5 14.5t-57 41t-31 62.5t0.5 79l126 593q-77 -43 -150.5 -62.5t-135.5 -31.5l-150 -28t-136.5 -35t-104 -51.5t-52.5 -78.5
q-11 -52 4.5 -87.5t47.5 -57t75 -30.5t88 -9q16 0 35 1t40 4q35 6 65 0t52.5 -21.5t34.5 -41.5t11 -60q-1 -33 -14 -64t-35 -56.5t-51 -43.5t-62 -25q-58 -12 -109.5 -18.5t-102.5 -6.5q-123 0 -227.5 26t-175 85t-99 153.5t0.5 231.5q28 133 101.5 222.5t185.5 149
t260.5 97t328.5 67.5q64 11 125.5 26t111 36.5t83.5 50.5t42 68q13 61 -4.5 96t-54 53t-86 22.5t-100.5 4.5q-54 0 -102.5 -8t-91 -27t-79.5 -51t-69 -81q-26 -39 -59 -68.5t-72 -46.5t-81.5 -20t-85.5 11q-39 12 -62.5 41t-31 66.5t0.5 80t32 83.5q65 108 152.5 181
t190.5 117t218.5 63t236.5 19q80 0 159 -9.5t149 -32.5q24 14 47 34.5t39 43.5q38 57 87 86.5t112 29.5q40 0 72 -15.5t52.5 -42t26.5 -61.5t-5 -75z" />
    <glyph glyph-name="hohipthai" unicode="&#xe2b;" horiz-adv-x="1765" 
d="M1656 179q-9 -43 -33.5 -79.5t-58.5 -63t-75.5 -41.5t-84.5 -15t-78 15t-57.5 41.5t-31 63t0.5 79.5l132 621q9 41 12 78t-2.5 68t-20.5 54t-43 37l-595 -339l-110 -519q-9 -43 -33.5 -79.5t-58.5 -63t-75.5 -41.5t-84.5 -15t-78 15t-57.5 41.5t-30.5 63t1 79.5l280 1321
q9 43 33.5 79.5t58.5 63t75 41.5t84 15t78 -15t57.5 -41.5t31 -63t-0.5 -79.5l-68 -323l882 492q39 22 79 28.5t75 -1.5t62.5 -30t42.5 -56t13 -72t-17.5 -75t-44.5 -69t-68 -54l-141 -81q43 -38 66.5 -89t31 -113t1 -134t-23.5 -152z" />
    <glyph glyph-name="lochulathai" unicode="&#xe2c;" horiz-adv-x="2195" 
d="M2190 1842q18 26 41.5 47.5t50.5 37t57 24t61 8.5q43 0 77 -16t55.5 -44t29.5 -65t-1 -80q-10 -47 -38 -86t-66.5 -70t-83.5 -55.5t-89 -43.5q55 -82 61 -178t-48 -203l-505 -994q-16 -32 -41 -58.5t-55 -45.5t-64.5 -29.5t-70.5 -10.5q-73 0 -116 40.5t-53 104.5
l-110 723l-410 -724q-16 -32 -41 -58.5t-55 -45.5t-64.5 -29.5t-70.5 -10.5q-73 0 -119 39.5t-50 105.5l-64 1323q-2 43 13.5 83t44 73t68 56.5t84.5 33.5q46 10 87 4t72.5 -26t50 -53t18.5 -76l-20 -871l368 632q17 30 40.5 55t51 43.5t59 29t64.5 10.5q67 0 107 -38.5
t50 -98.5l107 -658l200 459q23 55 37.5 98.5t15.5 76.5t-15.5 55.5t-56.5 34.5q-25 7 -44 22.5t-31 37t-15.5 47t2.5 54.5q7 31 23.5 59t39.5 50t51.5 37t58.5 20q83 14 146 49t105 95z" />
    <glyph glyph-name="oangthai" unicode="&#xe2d;" horiz-adv-x="1737" 
d="M934 954q35 0 61.5 -13.5t43 -36.5t21.5 -54t-2 -66q-8 -35 -26 -66t-44 -54t-58.5 -36.5t-67.5 -13.5h-195q3 -65 22.5 -118t54.5 -91.5t84 -59.5t112 -21q83 0 156 34.5t132.5 100t103.5 160.5t70 217q53 251 -6.5 383.5t-240.5 132.5q-48 0 -99.5 -11t-100 -31.5
t-91 -51t-72.5 -69.5t-64 -68t-71.5 -46.5t-78.5 -20.5t-84 11q-39 12 -64 41.5t-33.5 67.5t0 80.5t36.5 81.5q64 89 150.5 160.5t189.5 121t219 76t241 26.5q215 0 350 -68t202.5 -187t75 -280.5t-32.5 -348.5q-25 -117 -67 -227t-102 -207t-139 -177.5t-178 -139
t-218.5 -90.5t-259.5 -32q-137 0 -240 29.5t-176.5 83.5t-118.5 129.5t-66 166.5t-19.5 195.5t21.5 216.5q7 35 25.5 66t44.5 54t58.5 36.5t67.5 13.5h473z" />
    <glyph glyph-name="honokhukthai" unicode="&#xe2e;" horiz-adv-x="1729" 
d="M864 -37q-137 0 -240 29.5t-176.5 83.5t-118.5 129.5t-66 166.5t-19.5 195.5t21.5 216.5q7 35 25.5 66t44.5 54t58.5 36.5t67.5 13.5h473q35 0 61.5 -13.5t43 -36.5t21.5 -54t-2 -66q-8 -35 -26 -66t-44 -54t-58.5 -36.5t-67.5 -13.5h-195q3 -65 22.5 -118t54.5 -91.5
t84 -59.5t112 -21q83 0 156 34.5t132.5 100t103.5 160.5t70 217q53 251 -6.5 383.5t-240.5 132.5q-48 0 -99.5 -11t-100 -31.5t-91 -51t-72.5 -69.5t-64 -68t-71.5 -46.5t-78.5 -20.5t-84 11q-39 12 -64 41.5t-33.5 67.5t0 80.5t36.5 81.5q64 89 150.5 160.5t189.5 121
t219 76t241 26.5q95 0 173 -13.5t142 -39.5q28 14 54.5 36.5t44.5 48.5q38 57 87 86.5t112 29.5q40 0 72 -15.5t52.5 -42t26.5 -61.5t-5 -75q-20 -72 -73 -122.5t-125 -88.5l-6 -2q66 -120 73 -279.5t-33 -345.5q-25 -117 -67 -227t-102 -207t-139 -177.5t-178 -139
t-218.5 -90.5t-259.5 -32z" />
    <glyph glyph-name="paiyannoithai" unicode="&#xe2f;" horiz-adv-x="1810" 
d="M1388 692q-86 -40 -185.5 -63t-202.5 -23q-177 0 -301.5 40.5t-198 115t-96 180t4.5 234.5q20 95 61 169t95.5 130t120.5 95t137 63t143 35t140 11h160q36 0 63 -13.5t43.5 -37t21.5 -54.5t-2 -67q-8 -36 -26.5 -67t-45 -54.5t-59 -37t-68.5 -13.5h-160
q-84 0 -133.5 -44.5t-65.5 -119.5q-8 -37 -2.5 -74t30.5 -67t73.5 -48.5t128.5 -18.5q184 0 296 63.5t142 202.5l58 273q9 43 33 79t57.5 62t74.5 41t84 15t77.5 -15t57 -41t31 -62t-0.5 -79l-282 -1325q-9 -43 -33 -79t-58 -62.5t-74.5 -41t-83.5 -14.5t-77.5 14.5t-57 41
t-31 62.5t0.5 79z" />
    <glyph glyph-name="saraathai" unicode="&#xe30;" horiz-adv-x="1044" 
d="M560 1073q-36 0 -64.5 12t-47.5 33.5t-26.5 51t0.5 65.5l30 141q7 36 27 65.5t48 51t61.5 33.5t69.5 12t64.5 -12t47.5 -33.5t26 -51t0 -65.5h297q31 0 55 -12t38.5 -32.5t19 -48.5t-2.5 -59q-7 -32 -23 -59.5t-39 -47.5t-52 -32t-60 -12h-469zM383 242q-36 0 -64.5 12
t-47.5 33.5t-26.5 51t0.5 65.5l30 141q8 36 28 65.5t48 51t61.5 33.5t69.5 12t64.5 -12t47.5 -33.5t26 -51t-1 -65.5h297q31 0 55 -12t38.5 -32.5t19 -48.5t-2.5 -59q-7 -32 -23 -59.5t-39 -47.5t-52 -32t-60 -12h-469z" />
    <glyph glyph-name="maihanakatthai" unicode="&#xe31;" 
d="M-626 2236q8 38 29.5 70t51.5 55t66.5 36t74.5 13t69 -13t51 -36t27.5 -55t-0.5 -70h678q33 0 58 -12.5t40 -34.5t20 -51t-2 -62t-24.5 -62t-42 -50.5t-54.5 -34t-63 -12.5h-862q-38 0 -69 13t-51.5 36t-28 55t0.5 70z" />
    <glyph glyph-name="saraaathai" unicode="&#xe32;" horiz-adv-x="1450" 
d="M1106 1081q31 145 -9.5 210t-144.5 65q-72 0 -133 -39.5t-103 -118.5q-24 -41 -60 -72t-77 -48.5t-84 -20t-81 12.5t-62 44t-33 66t-1.5 79t32.5 83q56 92 133.5 162t167 117t186 71t191.5 24q133 0 241 -35t178 -106.5t95 -181t-6 -258.5l-203 -956q-9 -43 -33.5 -79.5
t-58.5 -63t-75.5 -41.5t-84.5 -15t-78 15t-57.5 41.5t-31 63t0.5 79.5z" />
    <glyph glyph-name="saraamthai" unicode="&#xe33;" horiz-adv-x="1450" 
d="M-31 2224q-5 -24 0.5 -47t19.5 -41t34.5 -28.5t44.5 -10.5q26 0 52 10.5t48 28.5t37.5 41t20.5 47q6 26 0.5 50t-20 42t-36 28.5t-47.5 10.5q-24 0 -49 -10.5t-46.5 -28.5t-37 -42t-21.5 -50zM-252 2224q16 74 57 138t98 111.5t126 75t141 27.5q71 0 129 -27.5t96 -75
t53 -111.5t-1 -138q-15 -72 -57 -135.5t-100.5 -110.5t-128 -74.5t-140.5 -27.5q-72 0 -129 27.5t-94.5 74.5t-51 110.5t1.5 135.5zM915 179q-9 -43 -0.5 -79.5t31 -63t57.5 -41.5t78 -15t84.5 15t75.5 41.5t58.5 63t33.5 79.5l203 956q31 149 6 258.5t-95 181t-178 106.5
t-241 35q-95 0 -191.5 -24t-186 -71t-167 -117t-133.5 -162q-25 -41 -32.5 -83t1.5 -79t33 -66t62 -44t81 -12.5t84 20t77 48.5t60 72q42 79 103 118.5t133 39.5q104 0 144.5 -65t9.5 -210z" />
    <glyph glyph-name="saraithai" unicode="&#xe34;" 
d="M186 2236q33 0 57.5 -12.5t39.5 -34.5t20 -51t-2 -62t-24 -62t-41.5 -50.5t-54.5 -34t-63 -12.5h-1225q-33 0 -58 12.5t-40 34t-19.5 50.5t2.5 62t24 62t41.5 51t54.5 34.5t63 12.5h1225z" />
    <glyph glyph-name="saraiithai" unicode="&#xe35;" 
d="M-1107 1917q-33 0 -58 12.5t-40 34t-19.5 50.5t2.5 62t24 62t41.5 51t54.5 34.5t63 12.5h958l19 89q9 41 31.5 76t55 60t71.5 39t80 14t74 -14t54.5 -39t30 -60t-0.5 -76l-47 -219q-9 -41 -32 -76t-55 -60t-71 -39t-80 -14h-1156z" />
    <glyph glyph-name="sarauethai" unicode="&#xe36;" 
d="M-1107 1917q-33 0 -58 12.5t-40 34t-19.5 50.5t2.5 62t24 62t41.5 51t54.5 34.5t63 12.5h774l3 13q13 64 49.5 121t87.5 99t113 66.5t126 24.5t115.5 -25t84.5 -68t45 -100.5t-1 -121.5q-15 -71 -52 -131t-88.5 -104t-113.5 -68.5t-126 -24.5h-1085zM-62 2249
q-5 -22 -0.5 -41.5t16.5 -34t30 -23t41 -8.5t45 8.5t40 23t31 34t18 41.5q5 23 0.5 43t-16.5 35t-30.5 23.5t-41.5 8.5t-45 -8.5t-40 -23.5t-30.5 -35t-17.5 -43z" />
    <glyph glyph-name="saraueethai" unicode="&#xe37;" 
d="M-1107 1917q-33 0 -58 12.5t-40 34t-19.5 50.5t2.5 62t24 62t41.5 51t54.5 34.5t63 12.5h569l26 124q7 34 26 62.5t45.5 48.5t59 31.5t66.5 11.5t61.5 -11.5t45.5 -31.5t24.5 -48.5t-0.5 -62.5l-26 -124h131l25 124q7 34 26 62.5t45.5 48.5t59 31.5t66.5 11.5t61.5 -11.5
t45 -31.5t24 -48.5t-0.5 -62.5l-54 -254q-9 -41 -32 -76t-55 -60t-71 -39t-80 -14h-1156z" />
    <glyph glyph-name="sarauthai" unicode="&#xe38;" 
d="M-320 -773q-8 -39 -30 -72.5t-53 -57.5t-68.5 -37.5t-76.5 -13.5t-71 13.5t-53 37.5t-29 57.5t0 72.5l58 273h-78q-31 0 -54 12t-37 32.5t-18.5 47.5t1.5 58q7 31 23 58t39 47t51 32t59 12h319q31 0 54 -12t37.5 -32t19 -47t-2.5 -58z" />
    <glyph glyph-name="sarauuthai" unicode="&#xe39;" 
d="M-615 -370q8 39 30.5 74t54 60.5t69.5 40.5t77 15t70.5 -15t52 -40.5t28 -60.5t-0.5 -74l-20 -93q-20 -94 -63 -177.5t-114 -146t-171.5 -99t-235.5 -36.5q-122 0 -204 29.5t-130 82t-64 125.5t-5 161l-31 1q-33 0 -58 12.5t-40.5 34.5t-20 51.5t2.5 62.5t24 62.5
t42 51.5t55.5 34.5t63.5 12.5h260q33 0 58 -12.5t40.5 -34.5t20.5 -51.5t-2 -62.5l-22 -101q-14 -65 4.5 -98t74.5 -33q107 0 134 131z" />
    <glyph glyph-name="phinthuthai" unicode="&#xe3a;" 
d="M-705 -389q11 54 42 101.5t74.5 83t96 56.5t106.5 21q52 0 94.5 -21t70 -56.5t38 -83t-0.5 -101.5q-11 -52 -42 -99t-73.5 -82t-94 -56t-103.5 -21q-54 0 -97.5 21t-72 56t-39 82t0.5 99z" />
    <glyph glyph-name="PUCR2005" unicode="&#xe3e;" 
 />
    <glyph glyph-name="bahtthai" unicode="&#xe3f;" horiz-adv-x="1946" 
d="M1472 1998q60 -1 120 -4.5t115.5 -12.5t103.5 -24.5t83 -39.5q47 -32 87 -76t66 -100t34.5 -123.5t-8.5 -147.5q-14 -68 -43 -127.5t-68.5 -110t-88 -91.5t-102.5 -72q60 -32 106 -79.5t73 -107t34.5 -128.5t-8.5 -144q-16 -76 -52 -150.5t-90 -142.5t-124.5 -126
t-156 -100.5t-184.5 -66.5t-210 -24h-111l-44 -204q-4 -18 -15.5 -35.5t-27 -31t-34 -21.5t-35.5 -8t-32 8t-25 21.5t-14.5 31t-0.5 35.5l44 204h-424q-53 0 -95.5 20.5t-70 55.5t-37.5 81.5t1 99.5l314 1475q12 55 43 103.5t74.5 85t96.5 57.5t108 21h414l39 182
q4 19 16 36.5t27.5 31t34 21.5t35.5 8t32 -8t25 -21.5t14 -31t0 -36.5zM1231 864l-110 -516h74q71 0 129.5 20.5t103.5 56.5t74.5 85.5t41.5 107.5q14 66 -5 113t-59.5 76.5t-97.5 43t-120 13.5h-31zM937 348l110 516h-246l-110 -516h246zM1115 1184l99 467h-246l-99 -467
h246zM1633 1421q14 66 1.5 109t-44.5 69t-81.5 37.5t-110.5 13.5l-99 -465q79 4 137 22.5t98 49.5t64 72.5t35 91.5z" />
    <glyph glyph-name="saraethai" unicode="&#xe40;" horiz-adv-x="766" 
d="M632 181q-9 -44 -33.5 -80.5t-59 -63.5t-76.5 -42t-85 -15q-44 0 -79 15t-58 42t-31.5 63.5t0.5 80.5l280 1317q9 43 33.5 80t59 64t76 42t85.5 15q43 0 78.5 -15t58.5 -42t31.5 -64t-0.5 -80z" />
    <glyph glyph-name="saraaethai" unicode="&#xe41;" horiz-adv-x="1384" 
d="M616 181q-9 -44 -33.5 -80.5t-59 -63.5t-76.5 -42t-85 -15q-44 0 -79 15t-58 42t-31.5 63.5t0.5 80.5l280 1317q9 43 33.5 80t59 64t76 42t85.5 15q43 0 78.5 -15t58.5 -42t31.5 -64t-0.5 -80zM1267 181q-9 -44 -33.5 -80.5t-59 -63.5t-76.5 -42t-85 -15q-44 0 -79 15
t-58 42t-31.5 63.5t0.5 80.5l280 1317q9 43 33.5 80t59 64t76 42t85.5 15q43 0 78.5 -15t58.5 -42t31.5 -64t-0.5 -80z" />
    <glyph glyph-name="saraothai" unicode="&#xe42;" horiz-adv-x="852" 
d="M1397 2494q34 0 61.5 -13t45.5 -35.5t24 -53t-1 -64.5q-7 -35 -26.5 -65t-46.5 -52t-60.5 -35t-67.5 -13h-347q18 -18 30.5 -45.5t18.5 -59.5t6 -66.5t-7 -66.5l-337 -1585h38q35 0 61.5 -13.5t43 -36.5t21.5 -54t-2 -66q-8 -35 -26 -66t-44 -54t-58.5 -36.5t-67.5 -13.5
h-295q-35 0 -61.5 13.5t-43 36.5t-22 54t2.5 66l382 1800q14 67 -10 122t-81 82q-40 20 -58.5 60.5t-7.5 91.5q7 35 27 65.5t47.5 53.5t60.5 36t68 13h732z" />
    <glyph glyph-name="saraaimaimuanthai" unicode="&#xe43;" horiz-adv-x="852" 
d="M351 2190q47 95 113 165.5t143.5 117t161 69t164.5 22.5q89 0 168.5 -20.5t134.5 -65t79 -114.5t3 -169q-7 -34 -22 -64t-35 -58t-44.5 -54.5t-49.5 -52.5q-30 -31 -59 -62.5t-55 -66.5t-47 -76t-33 -90l-283 -1331h42q35 0 61.5 -13.5t43 -36.5t21.5 -54t-2 -66
q-8 -35 -26 -66t-44 -54t-58.5 -36.5t-67.5 -13.5h-295q-35 0 -61.5 13.5t-43 36.5t-22 54t2.5 66l319 1501q11 54 36.5 102t58.5 90.5t70 80t72 71.5q50 47 85.5 87t43.5 77q2 9 1.5 22t-7 24.5t-21 19.5t-40.5 8q-29 0 -57 -12t-53.5 -33t-48 -50t-38.5 -64
q-17 -35 -44.5 -61t-59.5 -42t-67 -20.5t-68 5.5q-32 10 -54 31.5t-32 50.5t-7 63t21 69z" />
    <glyph glyph-name="saraaimaimalaithai" unicode="&#xe44;" horiz-adv-x="852" 
d="M690 340h38q35 0 61.5 -13.5t43 -36.5t21.5 -54t-2 -66q-8 -35 -26 -66t-44 -54t-58.5 -36.5t-67.5 -13.5h-295q-35 0 -61.5 13.5t-43 36.5t-22 54t2.5 66l373 1755q7 32 21.5 66.5t34 66.5t43 59.5t49.5 45.5h-347q-35 0 -62 13t-45 35t-24.5 52t0.5 65q7 34 27 64.5
t47 53t60 35.5t68 13h732q35 0 62.5 -13t45.5 -36t24 -53.5t-1 -65.5q-6 -26 -18 -49t-29 -42.5t-38 -35t-45 -25.5q-69 -27 -117 -82t-62 -122z" />
    <glyph glyph-name="lakkhangyaothai" unicode="&#xe45;" horiz-adv-x="1450" 
d="M1106 1081q31 145 -9.5 210t-144.5 65q-72 0 -133 -39.5t-103 -118.5q-24 -41 -60 -72t-77 -48.5t-84 -20t-81 12.5t-62 44t-33 66t-1.5 79t32.5 83q56 92 133.5 162t167 117t186 71t191.5 24q133 0 241 -35t178 -106.5t95 -181t-6 -258.5l-319 -1501q-9 -43 -33.5 -79.5
t-58.5 -63t-75.5 -41.5t-84.5 -15t-78 15t-57.5 41.5t-31 63t0.5 79.5z" />
    <glyph glyph-name="maiyamokthai" unicode="&#xe46;" horiz-adv-x="1712" 
d="M1474 -366q-9 -43 -34 -79.5t-59.5 -63t-76 -41.5t-84.5 -15t-78 15t-58.5 41.5t-32 63t0.5 79.5l303 1426q7 32 15.5 74t14 82.5t4 74t-14.5 48.5l-177 -139q-19 -16 -43 -28.5t-52 -12.5q-31 0 -50.5 12.5t-30.5 28.5l-119 139q-22 -17 -40.5 -46.5t-33.5 -65.5
t-25.5 -74t-16.5 -72q-3 -24 -4 -51.5t5.5 -51.5t22 -41t44.5 -20q71 -8 103.5 -51.5t17.5 -116.5q-8 -35 -27.5 -66t-47.5 -54t-61.5 -36t-67.5 -12q-53 2 -107 15t-103 38t-90.5 62t-69 87.5t-39.5 114.5t-2 142q13 108 49.5 207t101.5 182t161 147t229 102q19 5 46 11.5
t56.5 7t57 -7.5t47.5 -32l79 -97l110 98q28 25 60 33.5t63 7t58 -8.5t45 -12q80 -24 134 -61.5t86.5 -86t46.5 -106.5t14.5 -122.5t-9.5 -133.5t-25 -140z" />
    <glyph glyph-name="maitaikhuthai" unicode="&#xe47;" 
d="M-402 2462q-55 0 -90 -15t-55.5 -36t-29.5 -44t-13 -40q-2 -11 -3 -29.5t4 -36.5t18 -31t39 -13q30 0 55.5 17t40.5 49q22 47 63.5 70t89.5 23q50 0 82.5 -21.5t33.5 -71.5q0 -30 15 -48t42 -18q53 0 75 55q12 28 31 48.5t42.5 33t50 17.5t53.5 2q30 -3 55 -15.5t40 -34
t18 -52.5t-10 -71q-24 -71 -63 -120t-88 -80t-105 -44.5t-113 -13.5q-41 0 -75.5 10.5t-61.5 28t-47.5 40.5t-33.5 47q-26 -26 -59.5 -49t-71 -40t-78 -27t-80.5 -10q-71 0 -122 18t-86 48.5t-55 70.5t-29 82.5t-8 85.5t9 80q22 106 77.5 183t130.5 127t164 74.5t178 24.5
h727q28 0 49.5 -10.5t34 -29.5t16.5 -44t-2 -53q-6 -29 -20.5 -53.5t-35 -43.5t-46.5 -29.5t-54 -10.5h-699z" />
    <glyph glyph-name="maiekthai" unicode="&#xe48;" 
d="M444 2823q-9 -41 -31.5 -74.5t-54 -58.5t-70 -38.5t-78.5 -13.5t-72.5 13.5t-53.5 38.5t-29.5 58.5t0.5 74.5l48 228q9 40 31.5 74t54 59t70 38.5t78.5 13.5t72.5 -13.5t53.5 -38.5t29.5 -59t-0.5 -74z" />
    <glyph glyph-name="maithothai" unicode="&#xe49;" 
d="M432 3122q21 31 49.5 53t59.5 33t63 10t60 -15q27 -14 43.5 -38.5t21 -54t-3 -62.5t-28.5 -64q-48 -69 -117.5 -129t-159 -103.5t-198 -68.5t-235.5 -25h-141q-29 0 -50 10.5t-33 29t-15.5 43t2.5 52.5l29 136h-48q-28 0 -49 10.5t-33.5 29t-16 43t2.5 52.5t20 52.5
t34.5 43t45.5 29t53 10.5h242q28 0 49 -10.5t33.5 -29t16.5 -43t-2 -52.5l-25 -115q59 4 109.5 19t92 38t74 52.5t54.5 63.5z" />
    <glyph glyph-name="maitrithai" unicode="&#xe4a;" 
d="M597 3108q14 29 37.5 51t51 35.5t57.5 18t57 -2.5q31 -8 50 -25.5t26 -41.5t3 -52t-18 -57q-34 -67 -81 -130.5t-101 -115.5t-113 -87.5t-117 -45.5h-114q-38 0 -58.5 24.5t-15.5 62.5q4 26 5 50t-3.5 43t-15.5 30t-31 11q-32 0 -49 -20.5t-27 -53.5q-13 -42 -41.5 -64.5
t-66.5 -22.5t-58.5 23t-12.5 64q6 33 -4.5 53.5t-42.5 20.5q-35 0 -58.5 -31.5t-35.5 -80.5q-16 -66 -60 -97.5t-98 -31.5q-30 0 -52 10t-35 27.5t-17 41t2 50.5q20 96 60 166.5t91 117t108.5 69t111.5 22.5t96 -27.5t70 -71.5q46 44 101 71.5t117 27.5q37 0 70 -11.5
t59.5 -33t43 -52.5t20.5 -71q23 24 46.5 59.5t42.5 77.5z" />
    <glyph glyph-name="maichattawathai" unicode="&#xe4b;" 
d="M143 3222q8 39 30 72t52.5 56.5t68 37t76.5 13.5t70.5 -13.5t52 -37t28 -56.5t-0.5 -72l-12 -60h136q30 0 53 -11.5t36.5 -31t17.5 -46.5t-2 -57q-7 -30 -22.5 -56.5t-37.5 -46t-49.5 -31t-57.5 -11.5h-136l-13 -60q-8 -39 -30 -72t-53 -56.5t-68 -37t-76 -13.5
t-70.5 13.5t-52 37t-28 56.5t0.5 72l13 60h-135q-30 0 -53 11.5t-36.5 31t-17.5 46.5t2 57t21.5 56.5t38 46t50 31t57.5 11.5h135z" />
    <glyph glyph-name="thanthakhatthai" unicode="&#xe4c;" 
d="M428 3057q71 5 111.5 -26.5t38.5 -92.5q0 -30 -13 -60t-34 -54t-49.5 -40.5t-59.5 -19.5q-51 -5 -91 -20.5t-70.5 -38t-53.5 -51.5t-39 -62q-19 -39 -50 -65t-68 -39.5t-76.5 -14.5t-74.5 12q-38 14 -60.5 41t-29.5 61.5t2 73.5t34 75q45 66 103.5 121.5t131.5 97t160 68
t188 34.5z" />
    <glyph glyph-name="nikhahitthai" unicode="&#xe4d;" 
d="M-31 2224q-5 -24 0.5 -47t19.5 -41t34.5 -28.5t44.5 -10.5q26 0 52 10.5t48 28.5t37.5 41t20.5 47q6 26 0.5 50t-20 42t-36 28.5t-47.5 10.5q-24 0 -49 -10.5t-46.5 -28.5t-37 -42t-21.5 -50zM-252 2224q16 74 57 138t98 111.5t126 75t141 27.5q71 0 129 -27.5t96 -75
t53 -111.5t-1 -138q-15 -72 -57 -135.5t-100.5 -110.5t-128 -74.5t-140.5 -27.5q-72 0 -129 27.5t-94.5 74.5t-51 110.5t1.5 135.5z" />
    <glyph glyph-name="yamakkanthai" unicode="&#xe4e;" 
d="M365 2367q-40 -4 -67 -14t-45 -26.5t-28.5 -40t-16.5 -54.5q-6 -30 -19.5 -48.5t-31 -28.5t-37.5 -13.5t-39 -3.5q-67 0 -108.5 -30.5t-66.5 -86.5q-17 -35 -42.5 -61.5t-57 -43t-67.5 -21.5t-75 4q-38 9 -60.5 30.5t-31.5 50.5t-4.5 63.5t20.5 70.5q49 110 137 187
t218 107q25 50 66.5 94t97 78.5t124 57t148.5 29.5q73 6 112.5 -28.5t36.5 -97.5q-2 -31 -15.5 -61t-35.5 -54t-51 -40t-61 -19z" />
    <glyph glyph-name="fongmanthai" unicode="&#xe4f;" horiz-adv-x="2028" 
d="M308 836q26 122 81.5 234.5t134 210t177 178t209 137.5t231 88.5t243.5 31.5q121 0 226 -31.5t190.5 -88.5t148.5 -137.5t99 -178t43.5 -210t-18.5 -234.5t-81.5 -234.5t-133 -210.5t-174.5 -178.5t-206.5 -137.5t-228 -88.5t-239.5 -31.5q-123 0 -230 31.5t-193.5 88.5
t-151 137.5t-101.5 178.5t-44.5 210.5t18.5 234.5zM728 844q20 94 75 178t132.5 147.5t171 100.5t190.5 37q94 0 169.5 -37t124.5 -100.5t68 -147.5t-1 -178q-21 -97 -75.5 -182t-130.5 -148.5t-167 -100t-185 -36.5q-97 0 -175 36.5t-128.5 100t-70 148.5t1.5 182zM589 844
q-27 -125 -3 -236t89 -194t165.5 -132t228.5 -49q82 0 163 22t156.5 62.5t143 96.5t121.5 124t92 145.5t56 160.5q17 83 11.5 160t-30.5 144t-68.5 121.5t-102 94t-130.5 61t-154 21.5q-85 0 -168 -21.5t-159 -61t-143 -94t-121 -121.5t-92 -144t-55 -160zM978 844
q-10 -46 -2 -86.5t31.5 -70.5t60 -47t84.5 -17q43 0 85 17t76.5 47t59.5 70.5t35 86.5q9 43 0.5 81.5t-30.5 67.5t-56.5 46.5t-77.5 17.5q-48 0 -92 -17.5t-79.5 -46.5t-60.5 -67.5t-34 -81.5z" />
    <glyph glyph-name="zerothai" unicode="&#xe50;" horiz-adv-x="1929" 
d="M1937 770q-32 -152 -86.5 -271.5t-126.5 -209t-159 -152t-185 -101t-204.5 -56t-216.5 -17.5q-112 0 -211.5 17.5t-181.5 57t-143 102t-95 152t-37.5 208t28.5 270.5q34 161 118.5 293.5t209 226.5t286 145.5t350.5 51.5q187 0 325.5 -51.5t223 -145.5t112 -226.5
t-6.5 -293.5zM1524 717q24 114 8.5 194t-60.5 130.5t-113.5 74t-149.5 23.5t-160.5 -23.5t-147 -74t-118 -130.5t-74.5 -194q-19 -88 -5 -162.5t56 -128.5t111.5 -84.5t161.5 -30.5t173 30.5t145.5 84.5t109 128.5t63.5 162.5z" />
    <glyph glyph-name="onethai" unicode="&#xe51;" horiz-adv-x="1905" 
d="M436 420q46 -41 103.5 -65t120 -36.5t127 -16t124.5 -3.5q115 0 211.5 31.5t171.5 92t125.5 148t74.5 199.5q18 84 8.5 154.5t-48.5 120.5t-107.5 78t-168.5 28q-78 0 -147 -13t-123 -39.5t-89.5 -66.5t-46.5 -94q-8 -38 0 -69t35 -53.5t75 -35.5t121 -13q44 4 74.5 -5
t48.5 -28.5t24 -47t1 -59.5q-6 -41 -23.5 -70.5t-42.5 -50.5t-55.5 -34t-63 -20.5t-65.5 -10.5t-63 -3q-121 0 -220.5 34t-165.5 96t-93.5 150t-4.5 195q22 103 70 186.5t115 147.5t149.5 110t174.5 76t189.5 44t193.5 14q113 0 214.5 -17.5t184.5 -54.5t145.5 -94.5
t99 -137t43.5 -182.5t-20 -231q-38 -180 -131 -328.5t-231 -255t-316 -165t-387 -58.5q-78 0 -160.5 5t-166.5 23.5t-168.5 54.5t-166.5 98q-24 20 -35.5 48t-10 59.5t15 64t39.5 60.5t58 45.5t64.5 22.5t63.5 -1.5t55 -26.5z" />
    <glyph glyph-name="twothai" unicode="&#xe52;" horiz-adv-x="2208" 
d="M1322 827q39 0 67 -11.5t44.5 -32.5t21.5 -50t-2 -63t-25 -64.5t-43.5 -54t-58 -37.5t-68.5 -14h-34q-103 0 -169.5 25t-105 66.5t-53 94.5t-14.5 109.5t10 112t22 100.5q22 81 63.5 152.5t101.5 130t138 102.5t173 71q12 3 30.5 6t39.5 1t42.5 -10.5t40.5 -28.5l92 -97
l144 97q31 21 57 29.5t47.5 10t38 -1.5t28.5 -6q86 -24 153.5 -66.5t110.5 -100.5t59 -128t-1 -149l-81 -381q-24 -115 -72.5 -208.5t-116 -167.5t-150.5 -128t-177.5 -89.5t-196.5 -53t-206 -17.5h-221q-207 0 -359 50t-244.5 141t-124 219t1.5 283l108 508q12 54 7.5 89
t-36.5 51q-29 14 -45.5 37.5t-22 52t0 61t20.5 64.5q19 39 48.5 68t65.5 46.5t74.5 23t75.5 -3.5q70 -17 122 -53t82.5 -91t37 -129t-12.5 -167l-125 -586q-13 -63 14 -120t91.5 -100.5t164.5 -69t232 -25.5q123 0 220 23t167 61t111 86.5t52 99.5l89 418q8 40 0 70t-29 48
l-287 -196l-185 192q-21 -15 -38 -41.5t-25 -60.5l-13 -61q-6 -31 -11 -56t-3.5 -43t12 -27.5t35.5 -9.5z" />
    <glyph glyph-name="threethai" unicode="&#xe53;" horiz-adv-x="1925" 
d="M1811 175q-9 -42 -33 -78t-57.5 -62t-74 -40.5t-82.5 -14.5t-76.5 14.5t-56.5 40.5t-30.5 62t0.5 78l160 755q8 37 5.5 71.5t-14.5 61.5t-32.5 44t-47.5 19l-314 -217l-203 213q-28 -8 -59.5 -28t-61.5 -58t-56 -96t-44 -141l-26 -123q-18 -87 -29.5 -152.5t-2.5 -109
t46 -64t115 -18.5q38 1 66.5 -12t45.5 -36t22 -54t-2 -66q-7 -32 -24 -60.5t-41.5 -50.5t-54.5 -37t-62 -19q-143 -20 -240.5 -3.5t-158.5 61t-90 112t-35.5 149t4.5 173t31 183.5l22 102q34 161 97 281.5t152 206t203 137.5t251 76q10 2 26 3t35 -2.5t40 -13.5t41 -31
l91 -96l139 96q30 21 54.5 31t44.5 13.5t34.5 2t24.5 -2.5q133 -20 223 -72t139.5 -127.5t61.5 -169.5t-10 -197z" />
    <glyph glyph-name="fourthai" unicode="&#xe54;" horiz-adv-x="1925" 
d="M1718 352q36 0 64 -14t45 -38t22.5 -56t-2.5 -68t-27 -68t-46 -56t-60.5 -38t-69.5 -14h-784q-139 0 -239.5 28.5t-168.5 77.5t-106.5 113.5t-55.5 136.5t-14.5 146.5t17.5 144.5l33 156q36 169 119.5 293t206 205.5t281 121t344.5 39.5h352q54 0 87.5 27t56.5 72
q22 42 54.5 72.5t71.5 47t82 18t86 -13.5q38 -14 61.5 -42.5t32 -65t2 -78.5t-29.5 -83q-35 -65 -85.5 -121.5t-119.5 -98.5t-158.5 -66t-203.5 -24h-393q-84 0 -156.5 -17t-128.5 -50t-93.5 -82t-50.5 -113l-39 -185q-14 -65 -7.5 -120t36.5 -96.5t85.5 -65.5t139.5 -25
q-22 41 -31.5 87t1.5 102q5 22 15.5 55t31.5 70.5t54 75t83 70t119 56t162 31.5q35 3 64.5 -4.5t51.5 -25t34 -45t12 -65.5q0 -35 -14.5 -66.5t-39 -57t-57 -43.5t-69.5 -26q-31 -7 -44 -25t-18 -41q-7 -32 -2 -59.5t21 -47t41.5 -30.5t59.5 -11h284z" />
    <glyph glyph-name="fivethai" unicode="&#xe55;" horiz-adv-x="1925" 
d="M1185 1450q-5 -21 -0.5 -40.5t16.5 -34.5t30 -23.5t41 -8.5t45.5 8.5t40.5 23.5t30.5 34.5t17.5 40.5q5 23 0.5 43t-16.5 35t-30.5 24t-41.5 9t-45 -9t-40 -24t-30.5 -35t-17.5 -43zM1173 1106q-84 0 -156.5 -17t-128.5 -50t-93.5 -82t-50.5 -113l-39 -185
q-14 -65 -7.5 -120t36.5 -96.5t85.5 -65.5t139.5 -25q-22 41 -31.5 87t1.5 102q5 22 15.5 55t31.5 70.5t54 75t83 70t119 56t162 31.5q35 3 64.5 -4.5t51.5 -25t34 -45t12 -65.5q0 -35 -14.5 -66.5t-39 -57t-57 -43.5t-69.5 -26q-31 -7 -44 -25t-18 -41q-7 -32 -2 -59.5
t21 -47t41.5 -30.5t59.5 -11h284q36 0 64 -14t45 -38t22.5 -56t-2.5 -68t-27 -68t-46 -56t-60.5 -38t-69.5 -14h-784q-139 0 -239.5 28.5t-168.5 77.5t-106.5 113.5t-55.5 136.5t-14.5 146.5t17.5 144.5l33 156q27 129 82.5 231.5t135 179.5t182 129.5t223.5 81.5l5 21
q14 66 54 125.5t96 104.5t123.5 71.5t136.5 26.5q72 0 128.5 -25t92.5 -68t51 -99.5t5 -119.5q48 3 79 29.5t53 69.5q22 42 56.5 72.5t75 47t82.5 18t80 -13.5q37 -15 60.5 -43.5t32.5 -65t2.5 -78t-29.5 -82.5q-35 -65 -85.5 -121.5t-119.5 -98.5t-158.5 -66t-203.5 -24
h-393z" />
    <glyph glyph-name="sixthai" unicode="&#xe56;" horiz-adv-x="1958" 
d="M952 590q-41 0 -69 -8t-46 -22.5t-28 -34t-15 -42.5q-7 -32 8.5 -60t50.5 -48.5t87.5 -33t119.5 -13.5q76 -2 152.5 20t141.5 66t112.5 110t65.5 152l20 94q40 187 -29 273.5t-247 86.5q-60 0 -122 -5t-126.5 -17.5t-133 -33.5t-141.5 -52q-83 -38 -150.5 -22t-96.5 81
l-95 223q-15 33 -13.5 69.5t16 71.5t41.5 66.5t64 52.5t75.5 27.5t72 -0.5t60.5 -27.5t41 -53.5l61 -134q109 50 237.5 75.5t268.5 31.5q151 4 262.5 -21t188.5 -72.5t122.5 -114.5t65.5 -146.5t16.5 -169t-23.5 -181.5l-22 -102q-27 -94 -72 -183.5t-107.5 -168.5
t-143.5 -144t-180.5 -111t-217.5 -69.5t-254 -19.5q-153 4 -271 44t-194.5 107.5t-106.5 159.5t-7 201q24 110 78.5 190.5t135 133t183 77.5t222.5 25q34 0 61.5 -13t45 -35t24 -52t-0.5 -64q-8 -34 -25.5 -64t-42 -52.5t-55.5 -35t-65 -12.5z" />
    <glyph glyph-name="seventhai" unicode="&#xe57;" horiz-adv-x="2322" 
d="M2313 750q-33 -154 -116.5 -290.5t-209 -240t-287.5 -165.5t-352 -67q-39 -1 -71 14t-53.5 41.5t-30 61.5t-0.5 73q12 52 48 96q40 49 66 100.5t43 102.5t28 99.5t20 92.5l32 147q13 63 16.5 112t-1.5 85.5t-17 61.5t-29 40l-286 -196l-195 204q-25 -15 -51 -41.5
t-50.5 -65.5t-45.5 -90.5t-35 -117.5l-28 -131q-18 -87 -29.5 -152.5t-2.5 -109t46 -64t115 -18.5q38 1 66.5 -12t45.5 -36t22 -54t-2 -66q-7 -32 -24 -60.5t-41.5 -50.5t-54.5 -37t-62 -19q-143 -20 -240.5 -3.5t-158.5 61t-90 112t-35.5 149t5 173t30.5 183.5l23 106
q61 286 222 457t410 233q14 3 35 6t45 1t48 -11t44 -30l86 -91l139 92q28 19 51.5 27.5t41.5 11t31.5 0.5t22.5 -4q132 -29 208 -88.5t108.5 -146.5t28.5 -199t-32 -245l-26 -119q-17 -65 -40 -142t-68 -157q43 17 82 52.5t70.5 83t55 103.5t35.5 113l107 504
q19 93 57.5 167t92 129t121 91t144.5 53q40 9 77 3.5t65.5 -23t46 -46.5t19.5 -68q1 -32 -10 -64.5t-32 -61t-50 -52t-64 -37.5q-38 -16 -57.5 -51t-31.5 -89z" />
    <glyph glyph-name="eightthai" unicode="&#xe58;" horiz-adv-x="1884" 
d="M1717 1566q22 42 54.5 72.5t71.5 47t82 18t86 -13.5q38 -14 61.5 -42.5t32.5 -65t2 -78.5t-29 -83q-36 -66 -87 -125t-121 -103t-159.5 -69.5t-203.5 -25.5h-397q-83 0 -147 -22t-109 -57.5t-72.5 -81t-37.5 -93.5l-62 -291q-8 -35 -2.5 -68t19.5 -60t35 -46t45 -27
l294 209l217 -213q27 4 51.5 14.5t45.5 31t37 53t27 81.5q4 20 6.5 41t-1 38.5t-15 28.5t-34.5 11q-39 0 -65 13.5t-40.5 35.5t-17.5 50.5t4 59.5q8 37 27.5 69t47.5 55t63.5 36t76.5 13q94 0 160 -19t109 -51.5t66 -76.5t30.5 -94t3.5 -104t-15 -106q-22 -103 -66 -190
t-109 -154.5t-151.5 -114.5t-192.5 -69q-24 -5 -55.5 -11.5t-65.5 -7.5t-66.5 7.5t-58.5 33.5l-108 105l-139 -104q-30 -23 -61.5 -31t-61.5 -8t-56 5.5t-44 10.5q-109 29 -184.5 83.5t-119 127t-54.5 160t9 182.5l52 246q33 155 106.5 278t186 208.5t262 131t335.5 45.5
h357q53 0 87.5 28t57.5 76z" />
    <glyph glyph-name="ninethai" unicode="&#xe59;" horiz-adv-x="1946" 
d="M1137 958q-26 81 -64.5 126.5t-103.5 45.5q-35 0 -68.5 -16.5t-64 -56t-57.5 -106.5t-48 -169l-23 -106q-18 -87 -26.5 -153.5t4.5 -109.5t53 -61.5t120 -9.5q39 4 67 -8.5t45 -36.5t22 -56t-2 -67q-7 -32 -24.5 -62t-42.5 -54t-55 -40.5t-62 -20.5q-143 -20 -242 -3.5
t-162 61t-94.5 112t-40.5 149t0.5 173t29.5 183.5l21 98q37 175 94.5 308.5t144.5 223.5t207 135.5t283 45.5q29 0 63.5 -0.5t68.5 -3.5t66 -10t57 -19q33 -15 58.5 -38.5t45.5 -51.5l91 82q14 12 39.5 26.5t59.5 14.5h123q52 0 82.5 25t50.5 74q17 40 46.5 68t65.5 42.5
t76 15t79 -13.5q34 -12 55.5 -36.5t29 -57t1.5 -71t-26 -78.5q-31 -62 -75 -115t-108.5 -91.5t-153 -60t-207.5 -21.5q-10 0 -18.5 -2.5t-12.5 -5.5l-75 -61l233 -835q10 -36 3.5 -74.5t-26 -73.5t-51 -64t-71.5 -47q-41 -17 -79.5 -18.5t-71 10.5t-56 37.5t-32.5 61.5z" />
    <glyph glyph-name="angkhankhuthai" unicode="&#xe5a;" horiz-adv-x="2437" 
d="M1388 692q-86 -40 -185.5 -63t-202.5 -23q-177 0 -301.5 40.5t-198 115t-96 180t4.5 234.5q20 95 61 169t95.5 130t120.5 95t137 63t143 35t140 11h160q36 0 63 -13.5t43.5 -37t21.5 -54.5t-2 -67q-8 -36 -26.5 -67t-45 -54.5t-59 -37t-68.5 -13.5h-160
q-84 0 -133.5 -44.5t-65.5 -119.5q-8 -37 -2.5 -74t30.5 -67t73.5 -48.5t128.5 -18.5q184 0 296 63.5t142 202.5l58 273q9 43 33 79t57.5 62t74.5 41t84 15t77.5 -15t57 -41t31 -62t-0.5 -79l-282 -1325q-9 -43 -33 -79t-58 -62.5t-74.5 -41t-83.5 -14.5t-77.5 14.5t-57 41
t-31 62.5t0.5 79zM2181 1502q9 43 33 79t57.5 62t74.5 41t84 15t77.5 -15t57 -41t31 -62t-0.5 -79l-282 -1325q-9 -43 -33 -79t-58 -62.5t-74.5 -41t-83.5 -14.5t-77.5 14.5t-57 41t-31 62.5t0.5 79z" />
    <glyph glyph-name="khomutthai" unicode="&#xe5b;" horiz-adv-x="3899" 
d="M1973 1235q9 40 32.5 75t56 61t71 41t77.5 14q42 -1 76 -18.5t54 -48.5q51 -78 94 -152t70 -138q25 29 54 62t59 67.5t61 69t60 67.5q18 20 39 29.5t41 9.5t37 -9.5t26 -28.5q38 -76 70.5 -146t52.5 -121q36 40 71 78.5t67 69.5h639q41 0 74 -15.5t54.5 -42.5t29.5 -63.5
t-1 -77.5t-32 -77.5t-56 -63.5t-72.5 -42.5t-80.5 -15.5h-488q-25 -27 -54.5 -60t-64.5 -74.5t-76.5 -93.5t-89.5 -117q-13 -18 -31 -27.5t-35.5 -9t-32 10.5t-19.5 31q-29 96 -57 174.5t-54 141.5q-51 -65 -115 -155t-139 -213q-20 -32 -44.5 -49t-47.5 -17.5t-41.5 16.5
t-25.5 53q-22 108 -44 188t-42 136q-50 -119 -122.5 -225t-161 -195.5t-191.5 -161t-214.5 -121.5t-228 -77t-233.5 -27q-143 0 -257.5 37t-200 102t-142.5 153t-86.5 190.5t-32 214t21.5 224.5q21 99 64.5 202t106.5 199t144.5 180.5t179 147.5t210 99.5t237.5 36.5
q149 0 252.5 -46.5t166 -125t86 -183.5t11.5 -222q-4 -39 -22 -75.5t-46 -66t-64.5 -49.5t-76.5 -26t-74.5 4t-59 32t-38 54t-10.5 71q5 115 -39.5 173t-141.5 66q-97 -2 -176.5 -41.5t-140 -106t-102 -155t-62.5 -188.5q-21 -98 -4.5 -188.5t67 -159.5t133 -110.5
t193.5 -41.5q105 0 199 33.5t177 93t153.5 142t128 181t101 209.5t72.5 228z" />
    <glyph glyph-name="ZWSP" unicode="&#x200b;" 
 />
    <glyph glyph-name="endash" unicode="&#x2013;" horiz-adv-x="1733" 
d="M1759 954q36 0 66.5 -9t50.5 -28.5t27.5 -50t-1.5 -74.5t-30 -74.5t-49 -49.5t-62 -28t-70 -9h-1381q-36 0 -66.5 9t-50.5 28t-27.5 49.5t1.5 74.5t30 74.5t49 50t62 28.5t70 9h1381z" />
    <glyph glyph-name="emdash" unicode="&#x2014;" horiz-adv-x="3195" 
d="M3220 954q36 0 66.5 -9t50.5 -28.5t27.5 -50t-1.5 -74.5t-30 -74.5t-49 -49.5t-62 -28t-70 -9h-2842q-36 0 -66.5 9t-50.5 28t-27.5 49.5t1.5 74.5t30 74.5t49 50t62 28.5t70 9h2842z" />
    <glyph glyph-name="quoteleft" unicode="&#x2018;" horiz-adv-x="852" 
d="M972 1442q-10 -46 -36 -86.5t-63 -71t-81 -48t-90 -17.5q-66 0 -109.5 26.5t-65.5 72.5t-25 107.5t12 130.5q25 118 81.5 211.5t137.5 168.5q26 24 61.5 50t73.5 47.5t75.5 35.5t69.5 14q45 0 64 -24.5t12 -56.5q-6 -28 -29.5 -48t-56.5 -39.5t-73 -41.5t-78.5 -54
t-72.5 -78.5t-56 -113.5q20 11 44 17.5t53 6.5q47 0 80 -17.5t51.5 -46.5t24 -66.5t-3.5 -78.5z" />
    <glyph glyph-name="quoteright" unicode="&#x2019;" horiz-adv-x="852" 
d="M579 1860q10 46 36 86.5t63 71t81 48t90 17.5q66 0 109.5 -26.5t65.5 -72.5t25 -107.5t-12 -130.5q-26 -118 -82 -211.5t-137 -168.5q-26 -24 -61.5 -50t-73.5 -47.5t-76 -35.5t-69 -14q-45 0 -64 24.5t-12 56.5q6 28 29.5 48t56.5 39.5t73 41.5t78.5 54t72.5 78t56 114
q-20 -11 -44.5 -17.5t-53.5 -6.5q-47 0 -79.5 17.5t-51.5 46.5t-24 66.5t4 78.5z" />
    <glyph glyph-name="quotedblleft" unicode="&#x201c;" horiz-adv-x="1438" 
d="M972 1442q-10 -46 -36 -86.5t-63 -71t-81 -48t-90 -17.5q-66 0 -109.5 26.5t-65.5 72.5t-25 107.5t12 130.5q25 118 81.5 211.5t137.5 168.5q26 24 61.5 50t73.5 47.5t75.5 35.5t69.5 14q45 0 64 -24.5t12 -56.5q-6 -28 -29.5 -48t-56.5 -39.5t-73 -41.5t-78.5 -54
t-72.5 -78.5t-56 -113.5q20 11 44 17.5t53 6.5q47 0 80 -17.5t51.5 -46.5t24 -66.5t-3.5 -78.5zM1563 1442q-10 -46 -36 -86.5t-63 -71t-81 -48t-90 -17.5q-66 0 -109.5 26.5t-65.5 72.5t-25 107.5t12 130.5q25 118 81.5 211.5t137.5 168.5q26 24 61.5 50t73.5 47.5
t75.5 35.5t69.5 14q45 0 64 -24.5t12 -56.5q-6 -28 -29.5 -48t-56.5 -39.5t-73 -41.5t-78.5 -54t-72.5 -78.5t-56 -113.5q20 11 44 17.5t53 6.5q47 0 80 -17.5t51.5 -46.5t24 -66.5t-3.5 -78.5z" />
    <glyph glyph-name="quotedblright" unicode="&#x201d;" horiz-adv-x="1438" 
d="M579 1860q10 46 36 86.5t63 71t81 48t90 17.5q66 0 109.5 -26.5t65.5 -72.5t25 -107.5t-12 -130.5q-26 -118 -82 -211.5t-137 -168.5q-26 -24 -61.5 -50t-73.5 -47.5t-76 -35.5t-69 -14q-45 0 -64 24.5t-12 56.5q6 28 29.5 48t56.5 39.5t73 41.5t78.5 54t72.5 78t56 114
q-20 -11 -44.5 -17.5t-53.5 -6.5q-47 0 -79.5 17.5t-51.5 46.5t-24 66.5t4 78.5zM1167 1860q10 46 36 86.5t63 71t81 48t90 17.5q66 0 109.5 -26.5t65.5 -72.5t25 -107.5t-12 -130.5q-26 -118 -82 -211.5t-137 -168.5q-26 -24 -61.5 -50t-73.5 -47.5t-76 -35.5t-69 -14
q-45 0 -64 24.5t-12 56.5q6 28 29.5 48t56.5 39.5t73 41.5t78.5 54t72.5 78t56 114q-20 -11 -44.5 -17.5t-53.5 -6.5q-47 0 -79.5 17.5t-51.5 46.5t-24 66.5t4 78.5z" />
    <glyph glyph-name="bullet" unicode="&#x2022;" horiz-adv-x="1171" 
d="M256 860q14 64 45 125.5t76 115.5t101 99.5t119.5 78.5t132 51t138.5 18q106 0 191 -40t141 -107.5t78.5 -155.5t1.5 -185q-22 -103 -82 -193t-144.5 -157t-186.5 -106t-208 -39q-105 0 -189 39t-139 106t-76 157t1 193z" />
    <glyph glyph-name="Euro" unicode="&#x20ac;" horiz-adv-x="2182" 
d="M501 1002q5 20 9.5 40t9.5 40h-59q-28 0 -53.5 3.5t-43.5 15t-25.5 33t0.5 58.5q11 51 38.5 74.5t63 32t75 7t73.5 -1.5h11q71 159 178 295.5t246.5 236t309.5 156.5t367 57q130 0 235.5 -24.5t186 -65t137.5 -93.5t91.5 -111t46 -117t2.5 -110q-9 -48 -30.5 -86t-54 -65
t-73.5 -41t-88 -14q-50 0 -82 15.5t-54.5 41t-38.5 57.5t-34 66t-41.5 66t-60 57.5t-89.5 41t-131 15.5q-79 0 -158 -25t-152.5 -73t-139 -118.5t-116.5 -161.5h419q30 0 57 -2.5t45.5 -13t26.5 -31.5t0 -59t-25 -61t-40 -35t-52 -16t-60 -4h-463l-10 -40l-10 -40
q-4 -20 -7.5 -38.5t-6.5 -37.5h465q30 0 57 -2.5t46 -13.5t27 -32.5t0 -58.5q-8 -38 -25 -60.5t-40 -34.5t-51.5 -16t-60.5 -4h-426q8 -83 36.5 -153t80 -120.5t128.5 -78.5t182 -28q89 0 158.5 27.5t125 68.5t101.5 90t89 91t87 71.5t95 32.5q45 3 80.5 -9t58.5 -35.5
t33.5 -56.5t6.5 -73q-7 -71 -46.5 -141.5t-104.5 -134.5t-150.5 -118.5t-184.5 -94.5t-208 -62.5t-219 -22.5q-198 0 -350 47.5t-254.5 141.5t-154 233.5t-48.5 324.5h-79q-28 0 -54 3t-44.5 14.5t-26.5 33t0 58.5q8 38 32 60.5t56.5 34t68.5 15t69 3.5q4 19 7 37.5t7 38.5z
" />
    <glyph glyph-name="trademark" unicode="&#x2122;" horiz-adv-x="2753" 
d="M897 1788h-149q-31 0 -50.5 10t-30 25.5t-13 34t1.5 35.5q4 18 14 36.5t26.5 34t40.5 25.5t55 10h580q32 0 51.5 -10t29 -25.5t11.5 -34t-2 -36.5q-4 -17 -13.5 -35.5t-25.5 -34t-39.5 -25.5t-55.5 -10h-151l-141 -663q-10 -47 -32.5 -76.5t-48.5 -46.5t-51 -23.5
t-40 -6.5q-16 0 -39 6.5t-41.5 23.5t-28 46.5t0.5 76.5zM2437 1600h-5l-279 -504q-35 -62 -76 -93t-91 -31q-49 0 -76.5 31t-37.5 93l-64 504h-4l-101 -475q-10 -47 -32.5 -76.5t-49 -46.5t-51.5 -23.5t-41 -6.5t-39 6.5t-41.5 23.5t-28 46.5t0.5 76.5l144 677q13 63 41 104
t62 65t70 33t66 9q92 0 143.5 -43t69.5 -137l69 -392l236 392q56 93 126 136.5t162 43.5q30 0 62.5 -9t56.5 -33t34.5 -65t-2.5 -104l-144 -677q-10 -47 -32.5 -76.5t-49 -46.5t-51.5 -23.5t-41 -6.5t-38.5 6.5t-41 23.5t-28 46.5t0.5 76.5z" />
    <glyph glyph-name="uni25CC" unicode="&#x25cc;" horiz-adv-x="1868" 
d="M665 455l100 159q14 -34 34 -61.5t49 -48.5zM1210 1303l41 -156q-38 9 -81 7t-76 -11zM998 303l-42 152q35 -10 66.5 -9.5t78.5 13.5zM1604 803l-171 -70q20 34 28 70.5t8 77.5zM605 807l177 78q-14 -37 -24 -76.5t-10 -79.5zM844 1159l152 -57q-48 -22 -83.5 -47
t-61.5 -56zM1369 451l-141 49q38 21 69 46t59 56zM1544 1159l-104 -164q-14 34 -37.5 61.5t-49.5 49.5z" />
    <glyph glyph-name="thothannobasethai" unicode="&#xf700;" horiz-adv-x="1647" 
d="M502 618q-36 0 -63 13.5t-43.5 37t-22 54.5t2.5 67t26.5 67.5t45 55t59 37t68.5 13.5h269q36 0 58 -13.5t35.5 -37t20.5 -55t11 -67.5l37 -311q27 46 59 101t64.5 112.5t63 114.5t55.5 107.5t42 91.5t23 67q28 132 -24.5 207.5t-193.5 75.5q-92 0 -165.5 -44.5
t-130.5 -129.5q-27 -40 -66 -65t-81.5 -35.5t-84.5 -6.5t-73 23q-35 20 -55 51t-24.5 67.5t8 76t42.5 77.5q64 80 144 144t174 109t199.5 69t221.5 24q65 0 129.5 -9t124.5 -28q29 10 53.5 33t44.5 52q29 40 68 65.5t81 36t83 5.5t74 -27q34 -21 52.5 -54.5t21.5 -73
t-10 -81.5t-43 -80q-31 -35 -67.5 -64t-79.5 -49q26 -65 31.5 -148t-16.5 -188q-18 -83 -62.5 -182.5t-110 -215t-149 -246.5t-179.5 -277q-29 -45 -68.5 -82.5t-85.5 -65t-97.5 -42.5t-103.5 -15q-54 0 -99.5 16t-80.5 45.5t-57.5 69.5t-30.5 88l-62 419h-63z" />
    <glyph glyph-name="yoyingnobasethai" unicode="&#xf70f;" horiz-adv-x="2666" 
d="M1718 573q-13 -63 -2.5 -111t38 -80.5t69 -49.5t90.5 -17q48 0 95 15t87 46.5t70.5 80t44.5 116.5l197 925q9 43 33.5 80t59 64t76 42t85.5 15q43 0 78.5 -15t58.5 -42t31.5 -64t-0.5 -80l-202 -949q-22 -101 -65 -184.5t-102.5 -149t-132 -114t-153 -80t-166 -47
t-170.5 -15.5q-87 0 -167 16.5t-147.5 50t-120 83t-84 115t-40 147t12.5 178.5l103 483q12 57 7 113.5t-34.5 102t-87.5 74t-153 30.5q-68 1 -126 -13t-105 -37.5t-82.5 -52.5t-56.5 -57q42 -50 55 -124t-7 -167l-123 -577h40q33 0 58.5 -13t41 -35t20.5 -51.5t-2 -62.5
t-24.5 -62.5t-42.5 -51.5t-55.5 -35t-63.5 -13h-305q-33 0 -58.5 13t-41 35t-20.5 51.5t2 62.5l158 743q8 36 5 74.5t-25 75.5q-21 34 -32.5 58t-12 46t10 46.5t33.5 59.5q58 89 137 170.5t182.5 144t232 99.5t284.5 37q146 0 253 -27.5t181 -76.5t117.5 -116t62 -146
t15 -167t-22.5 -179z" />
    <glyph glyph-name="saraulowthai" unicode="&#xf718;" 
d="M-429 -1287q-8 -39 -30 -72.5t-53 -57.5t-69 -37.5t-77 -13.5t-71 13.5t-52.5 37.5t-28.5 57.5t0 72.5l56 263h-78q-31 0 -54 12t-37.5 32.5t-19 47.5t2.5 58q6 31 22 58t39 47t51 32t59 12h319q31 0 54 -12t37.5 -32t19 -47t-1.5 -58z" />
    <glyph glyph-name="sarauulowthai" unicode="&#xf719;" 
d="M-727 -894q9 39 31.5 74t54 60.5t69.5 40.5t77 15t70.5 -15t52 -40.5t28 -60.5t-1.5 -74l-19 -93q-20 -94 -63 -177.5t-114 -146t-172 -99t-236 -36.5q-122 0 -204 29.5t-130 82t-63.5 125.5t-4.5 161l-31 1q-33 0 -58.5 12.5t-40.5 34.5t-20 51.5t2 62.5t24.5 62.5
t42 51.5t55 34.5t63.5 12.5h260q33 0 58.5 -12.5t40.5 -34.5t20 -51.5t-2 -62.5l-21 -101q-14 -65 4.5 -98t74.5 -33q105 0 134 131z" />
    <glyph glyph-name="phinthulowthai" unicode="&#xf71a;" 
d="M-835 -963q11 54 42 102t74.5 83.5t95.5 56.5t106 21q52 0 94.5 -21t70 -56.5t38 -83.5t-0.5 -102q-11 -52 -42 -99t-73.5 -82t-94 -56t-103.5 -21q-54 0 -97 21t-71.5 56t-39 82t0.5 99z" />
    <glyph glyph-name="lochula.short" unicode="&#xf71d;" horiz-adv-x="2195" 
d="M2190 1842q18 26 41.5 47.5t50.5 37t57 24t61 8.5q43 0 77 -16t55.5 -44t29.5 -65t-1 -80q-10 -47 -38 -86t-66.5 -70t-83.5 -55.5t-89 -43.5q55 -82 61 -178t-48 -203l-505 -994q-16 -32 -41 -58.5t-55 -45.5t-64.5 -29.5t-70.5 -10.5q-73 0 -116 40.5t-53 104.5
l-110 723l-410 -724q-16 -32 -41 -58.5t-55 -45.5t-64.5 -29.5t-70.5 -10.5q-73 0 -119 39.5t-50 105.5l-64 1323q-2 43 13.5 83t44 73t68 56.5t84.5 33.5q46 10 87 4t72.5 -26t50 -53t18.5 -76l-20 -871l368 632q17 30 40.5 55t51 43.5t59 29t64.5 10.5q67 0 107 -38.5
t50 -98.5l107 -658l200 459q23 55 37.5 98.5t15.5 76.5t-15.5 55.5t-56.5 34.5q-25 7 -44 22.5t-31 37t-15.5 47t2.5 54.5q7 31 23.5 59t39.5 50t51.5 37t58.5 20q83 14 146 49t105 95z" />
    <glyph glyph-name="rulakkhangyao" unicode="&#xf881;" horiz-adv-x="2728" 
d="M372 905q8 36 5 74.5t-25 75.5q-21 34 -32.5 58t-12 46t10 46.5t33.5 59.5q58 89 140 170.5t189 144t241 99.5t295 37q100 0 181.5 -14.5t147.5 -40t116.5 -59.5t87.5 -74q58 43 122 77.5t130 59t132.5 38t131.5 13.5q89 0 170 -15.5t149 -47t120 -79t83.5 -112
t39 -146.5t-13.5 -181l-319 -1501q-9 -43 -33.5 -79.5t-58.5 -63t-75.5 -41.5t-84.5 -15t-78 15t-57.5 41.5t-31 63t0.5 79.5l307 1447q15 72 6.5 124t-36 85.5t-70 49.5t-94.5 16q-46 0 -93.5 -16t-89.5 -49t-75.5 -82t-51.5 -115q-5 -22 -9.5 -45.5t-9.5 -44.5l-291 -1370
q-9 -43 -34 -79.5t-59.5 -63t-76 -41.5t-84.5 -15t-78 15t-58.5 41.5t-32 63t0.5 79.5l297 1398q12 58 6 115.5t-40 103.5t-99 74.5t-171 30.5q-81 1 -147 -14.5t-115.5 -40.5t-83.5 -55t-50 -58q42 -47 51.5 -120.5t-10.5 -166.5l-123 -577h43q33 0 58.5 -13t41 -35
t20.5 -51.5t-2 -62.5t-24.5 -62.5t-42.5 -51.5t-55.5 -35t-63.5 -13h-305q-33 0 -58.5 13t-41 35t-20.5 51.5t2 62.5z" />
    <glyph glyph-name="lulakkhangyao" unicode="&#xf882;" horiz-adv-x="2712" 
d="M442 905q8 36 5 74.5t-25 75.5q-21 34 -32.5 58t-12 46t10 46.5t33.5 59.5q58 89 140 170.5t189 144t241 99.5t295 37q95 0 174.5 -11.5t144 -33t116 -52t91.5 -67.5q107 81 230 122.5t247 41.5q133 0 241 -35t178 -106.5t95 -181t-6 -258.5l-319 -1501
q-9 -43 -33.5 -79.5t-58.5 -63t-75.5 -41.5t-84.5 -15t-78 15t-57.5 41.5t-31 63t0.5 79.5l307 1447q31 145 -9.5 210t-144.5 65q-90 0 -158.5 -60.5t-110.5 -181.5q-3 -28 -6 -55.5t-9 -54.5l-291 -1370q-9 -43 -34 -79.5t-59.5 -63t-76 -41.5t-84.5 -15t-78 15t-58.5 41.5
t-32 63t0.5 79.5l297 1398q16 75 0 134.5t-57.5 101t-104.5 64t-141 24.5q-81 1 -147 -14.5t-116 -40.5t-83.5 -55t-50.5 -58q21 -23 35 -49t19.5 -59.5t2.5 -77t-15 -101.5l-157 -739q-7 -33 -24.5 -62.5t-42.5 -51.5t-55.5 -35t-63.5 -13h-300q-33 0 -58.5 13t-41 35
t-20.5 51.5t2 62.5t24.5 62.5t42 51.5t55.5 35t64 13h38z" />
    <glyph glyph-name="yamakkanleftthai" 
d="M-273 2367q-40 -4 -67 -14t-45 -26.5t-28.5 -40t-16.5 -54.5q-6 -30 -19.5 -48.5t-31 -28.5t-37.5 -13.5t-39 -3.5q-68 0 -109.5 -30.5t-66.5 -86.5q-17 -35 -42.5 -61.5t-57 -43t-67.5 -21.5t-75 4q-38 9 -60.5 30.5t-31.5 50.5t-4.5 63.5t20.5 70.5q49 110 137 187
t218 107q25 50 66.5 94t97.5 78.5t124.5 57t148.5 29.5q73 6 112.5 -28.5t36.5 -97.5q-2 -31 -15.5 -61t-35.5 -54t-51 -40t-61 -19z" />
    <glyph glyph-name="saraamleft" horiz-adv-x="1450" 
d="M-723 2224q-5 -24 0.5 -47t19.5 -41t34.5 -28.5t45.5 -10.5q26 0 52 10.5t48 28.5t37.5 41t20.5 47q6 26 0.5 50t-20 42t-36 28.5t-47.5 10.5q-25 0 -50 -10.5t-46.5 -28.5t-37 -42t-21.5 -50zM-944 2224q16 74 57 138t98 111.5t126.5 75t141.5 27.5q70 0 128 -27.5
t96.5 -75t53.5 -111.5t-1 -138q-15 -72 -57 -135.5t-100.5 -110.5t-128.5 -74.5t-140 -27.5q-72 0 -130 27.5t-95 74.5t-50.5 110.5t1.5 135.5zM915 179q-9 -43 -0.5 -79.5t31 -63t57.5 -41.5t78 -15t84.5 15t75.5 41.5t58.5 63t33.5 79.5l203 956q31 149 6 258.5t-95 181
t-178 106.5t-241 35q-95 0 -191.5 -24t-186 -71t-167 -117t-133.5 -162q-25 -41 -32.5 -83t1.5 -79t33 -66t62 -44t81 -12.5t84 20t77 48.5t60 72q42 79 103 118.5t133 39.5q104 0 144.5 -65t9.5 -210z" />
    <glyph glyph-name="uni0E33.alt1" horiz-adv-x="1450" 
d="M-723 2224q-5 -24 0.5 -47t19.5 -41t34.5 -28.5t45.5 -10.5q26 0 52 10.5t48 28.5t37.5 41t20.5 47q6 26 0.5 50t-20 42t-36 28.5t-47.5 10.5q-25 0 -50 -10.5t-46.5 -28.5t-37 -42t-21.5 -50zM-944 2224q16 74 57 138t98 111.5t126.5 75t141.5 27.5q70 0 128 -27.5
t96.5 -75t53.5 -111.5t-1 -138q-15 -72 -57 -135.5t-100.5 -110.5t-128.5 -74.5t-140 -27.5q-72 0 -130 27.5t-95 74.5t-50.5 110.5t1.5 135.5zM915 179q-9 -43 -0.5 -79.5t31 -63t57.5 -41.5t78 -15t84.5 15t75.5 41.5t58.5 63t33.5 79.5l203 956q31 149 6 258.5t-95 181
t-178 106.5t-241 35q-95 0 -191.5 -24t-186 -71t-167 -117t-133.5 -162q-25 -41 -32.5 -83t1.5 -79t33 -66t62 -44t81 -12.5t84 20t77 48.5t60 72q42 79 103 118.5t133 39.5q104 0 144.5 -65t9.5 -210z" />
    <glyph glyph-name="saraithai.alt1" 
d="M-848 1917q-33 0 -58 12.5t-40 34t-19.5 50.5t2.5 62t24 62t41.5 51t54.5 34.5t63 12.5h976q33 0 57.5 -12.5t39.5 -34.5t20 -51t-2 -62t-24 -62t-41.5 -50.5t-54.5 -34t-63 -12.5h-976z" />
    <glyph glyph-name="saraiithai.alt1" 
d="M-848 1917q-33 0 -58 12.5t-40 34t-19.5 50.5t2.5 62t24 62t41.5 51t54.5 34.5t63 12.5h699l19 89q9 41 31.5 76t55 60t71.5 39t80 14t74 -14t54.5 -39t30 -60t-0.5 -76l-47 -219q-9 -41 -32 -76t-55 -60t-71 -39t-80 -14h-897z" />
    <glyph glyph-name="sarauethai.alt1" 
d="M-848 1917q-33 0 -58 12.5t-40 34t-19.5 50.5t2.5 62t24 62t41.5 51t54.5 34.5t63 12.5h515l3 13q13 64 49.5 121t87.5 99t113 66.5t126 24.5t115.5 -25t84.5 -68t45 -100.5t-1 -121.5q-15 -71 -52 -131t-88.5 -104t-113.5 -68.5t-126 -24.5h-826zM-62 2249
q-5 -22 -0.5 -41.5t16.5 -34t30 -23t41 -8.5t45 8.5t40 23t31 34t18 41.5q5 23 0.5 43t-16.5 35t-30.5 23.5t-41.5 8.5t-45 -8.5t-40 -23.5t-30.5 -35t-17.5 -43z" />
    <glyph glyph-name="saraueethai.alt1" 
d="M-848 1917q-33 0 -58 12.5t-40 34t-19.5 50.5t2.5 62t24 62t41.5 51t54.5 34.5t63 12.5h310l26 124q7 34 26 62.5t45.5 48.5t59 31.5t66.5 11.5t61.5 -11.5t45.5 -31.5t24.5 -48.5t-0.5 -62.5l-26 -124h131l25 124q7 34 26 62.5t45.5 48.5t59 31.5t66.5 11.5t61.5 -11.5
t45 -31.5t24 -48.5t-0.5 -62.5l-54 -254q-9 -41 -32 -76t-55 -60t-71 -39t-80 -14h-897z" />
    <glyph glyph-name="saraithai.alt2" 
d="M-1589 1917q-33 0 -58 12.5t-40 34t-19.5 50.5t2.5 62t24 62t41.5 51t54.5 34.5t63 12.5h1223q33 0 57.5 -12.5t39.5 -34.5t20 -51t-2 -62t-24 -62t-41.5 -50.5t-54.5 -34t-63 -12.5h-1223z" />
    <glyph glyph-name="saraiithai.alt2" 
d="M-1589 1917q-33 0 -58 12.5t-40 34t-19.5 50.5t2.5 62t24 62t41.5 51t54.5 34.5t63 12.5h945l19 89q9 41 32 76t55.5 60t71.5 39t80 14t74 -14t54.5 -39t30 -60t-0.5 -76l-47 -219q-9 -41 -32 -76t-55 -60t-71 -39t-80 -14h-1144z" />
    <glyph glyph-name="sarauethai.alt2" 
d="M-1589 1917q-33 0 -58 12.5t-40 34t-19.5 50.5t2.5 62t24 62t41.5 51t54.5 34.5t63 12.5h797l3 13q13 64 49.5 121t88 99t113 66.5t126.5 24.5q64 0 115.5 -25t84.5 -68t45 -100.5t-1 -121.5q-15 -71 -52 -131t-89 -104t-114 -68.5t-126 -24.5h-1108zM-520 2249
q-5 -22 -0.5 -41.5t16.5 -34t30 -23t41 -8.5t45 8.5t40 23t31 34t18 41.5q5 23 0.5 43t-16.5 35t-30.5 23.5t-41.5 8.5t-45 -8.5t-40 -23.5t-30.5 -35t-17.5 -43z" />
    <glyph glyph-name="saraueethai.alt2" 
d="M-1589 1917q-33 0 -58 12.5t-40 34t-19.5 50.5t2.5 62t24 62t41.5 51t54.5 34.5t63 12.5h555l26 124q7 34 26 62.5t45.5 48.5t59 31.5t66.5 11.5t61.5 -11.5t45.5 -31.5t24.5 -48.5t-0.5 -62.5l-26 -124h131l26 124q7 34 26 62.5t45.5 48.5t59 31.5t66.5 11.5t61.5 -11.5
t45 -31.5t24 -48.5t-0.5 -62.5l-54 -254q-9 -41 -32 -76t-55 -60t-71 -39t-80 -14h-1143z" />
    <glyph glyph-name="maiekthai.alt2" 
d="M-54 2823q-9 -41 -31.5 -74.5t-54 -58.5t-70 -38.5t-78.5 -13.5t-72.5 13.5t-53.5 38.5t-29.5 58.5t0.5 74.5l49 231q9 40 31.5 74t54 59t70 38.5t78.5 13.5t72.5 -13.5t53.5 -38.5t29 -59t0 -74z" />
    <glyph glyph-name="maithothai.alt2" 
d="M47 3122q21 31 49.5 53t59.5 33t63 10t60 -15q27 -14 43.5 -38.5t21 -54t-3 -62.5t-28.5 -64q-48 -69 -117.5 -129t-158.5 -103.5t-198 -68.5t-236 -25h-141q-29 0 -50 10.5t-33 29t-15.5 43t2.5 52.5l29 136h-48q-28 0 -49 10.5t-33.5 29t-16 43t2.5 52.5t20 52.5
t34.5 43t45.5 29t53 10.5h243q28 0 49 -10.5t33.5 -29t16.5 -43t-2 -52.5l-25 -115q59 4 109.5 19t92 38t73.5 52.5t54 63.5z" />
    <glyph glyph-name="maitrithai.alt2" 
d="M111 3108q14 29 37.5 51t51 35.5t57.5 18t57 -2.5q31 -8 50 -25.5t26 -41.5t3 -52t-18 -57q-34 -67 -81 -130.5t-101 -115.5t-113 -87.5t-116 -45.5h-114q-38 0 -58.5 24.5t-15.5 62.5q4 26 5 50t-3.5 43t-15.5 30t-31 11q-32 0 -49 -20.5t-27 -53.5q-13 -42 -41.5 -64.5
t-66.5 -22.5t-59 23t-13 64q6 33 -4.5 53.5t-42.5 20.5q-35 0 -58.5 -31.5t-35.5 -80.5q-16 -66 -60 -97.5t-98 -31.5q-30 0 -52 10t-35 27.5t-17 41t2 50.5q20 96 60 166.5t91 117t108.5 69t111.5 22.5q55 0 97 -27.5t70 -71.5q46 44 101 71.5t117 27.5q37 0 70 -11.5
t59 -33t42.5 -52.5t20.5 -71q23 24 46.5 59.5t42.5 77.5z" />
    <glyph glyph-name="maichattawathai.alt2" 
d="M-352 3222q8 39 30 72t52.5 56.5t68 37t76.5 13.5t70 -13.5t51.5 -37t28 -56.5t-0.5 -72l-12 -60h136q30 0 53 -11.5t36.5 -31t17.5 -46.5t-2 -57q-7 -30 -22.5 -56.5t-37.5 -46t-49.5 -31t-57.5 -11.5h-135l-13 -60q-8 -39 -30 -72t-53 -56.5t-68 -37t-76 -13.5
t-70.5 13.5t-52 37t-28 56.5t0.5 72l13 60h-136q-30 0 -53 11.5t-36.5 31t-17.5 46.5t2 57t21.5 56.5t38 46t50 31t57.5 11.5h136z" />
    <glyph glyph-name="saraithai.alt3" 
d="M-1565 1917q-33 0 -58 12.5t-40 34t-19.5 50.5t2.5 62t24 62t41.5 51t54.5 34.5t63 12.5h1693q33 0 57.5 -12.5t39.5 -34.5t20 -51t-2 -62t-24 -62t-41.5 -50.5t-54.5 -34t-63 -12.5h-1693z" />
    <glyph glyph-name="saraiithai.alt3" 
d="M-1565 1917q-33 0 -58 12.5t-40 34t-19.5 50.5t2.5 62t24 62t41.5 51t54.5 34.5t63 12.5h1416l19 89q9 41 31.5 76t55 60t71.5 39t80 14t74 -14t54.5 -39t30 -60t-0.5 -76l-47 -219q-9 -41 -32 -76t-55 -60t-71 -39t-80 -14h-1614z" />
    <glyph glyph-name="sarauethai.alt3" 
d="M-1565 1917q-33 0 -58 12.5t-40 34t-19.5 50.5t2.5 62t24 62t41.5 51t54.5 34.5t63 12.5h1236l3 13q13 64 49.5 121t87.5 99t113 66.5t126 24.5t115.5 -25t84.5 -68t45 -100.5t-1 -121.5q-15 -71 -52 -131t-88.5 -104t-113.5 -68.5t-126 -24.5h-1547zM-58 2249
q-5 -22 -0.5 -41.5t16.5 -34t30 -23t41 -8.5t45 8.5t40 23t31 34t18 41.5q5 23 0.5 43t-16.5 35t-30.5 23.5t-41.5 8.5t-45 -8.5t-40 -23.5t-30.5 -35t-17.5 -43z" />
    <glyph glyph-name="saraueethai.alt3" 
d="M-1565 1917q-33 0 -58 12.5t-40 34t-19.5 50.5t2.5 62t24 62t41.5 51t54.5 34.5t63 12.5h1027l26 124q7 34 26 62.5t45.5 48.5t59 31.5t66.5 11.5t61.5 -11.5t45.5 -31.5t24.5 -48.5t-0.5 -62.5l-26 -124h131l25 124q7 34 26 62.5t45.5 48.5t59 31.5t66.5 11.5
t61.5 -11.5t45 -31.5t24 -48.5t-0.5 -62.5l-54 -254q-9 -41 -32 -76t-55 -60t-71 -39t-80 -14h-1614z" />
    <glyph glyph-name="maiekthai.alt4" 
d="M408 2658q-8 -41 -30.5 -74.5t-54 -58.5t-70 -38.5t-78.5 -13.5t-72.5 13.5t-53.5 38.5t-29.5 58.5t-0.5 74.5l54 254q9 40 31.5 74t54.5 59t70.5 38.5t78.5 13.5t72.5 -13.5t53.5 -38.5t29 -59t-1 -74z" />
    <glyph glyph-name="maithothai.alt4" 
d="M398 2958q21 31 49.5 53t59.5 33t62.5 10t59.5 -15q27 -14 44 -38.5t21.5 -54t-3.5 -62.5t-29 -64q-48 -69 -117 -129t-158.5 -103.5t-198 -68.5t-235.5 -25h-141q-29 0 -50 10.5t-33.5 29t-16 43t2.5 52.5l29 136h-48q-28 0 -49 10.5t-33.5 29t-16 43t2.5 52.5
t20.5 52.5t34.5 43t45.5 29t53.5 10.5h243q28 0 48.5 -10.5t33 -29t16 -43t-2.5 -52.5l-25 -115q58 1 108.5 16t92.5 38.5t75 54t55 64.5z" />
    <glyph glyph-name="maitrithai.alt4" 
d="M438 2943q14 29 37.5 51t51 35.5t57.5 18t57 -2.5q31 -8 50 -25.5t26 -41.5t3 -52t-18 -57q-34 -67 -81 -130.5t-101.5 -115.5t-113 -87.5t-116.5 -45.5h-114q-38 0 -58.5 24.5t-15.5 62.5q4 26 5 50t-3.5 43t-15.5 30t-31 11q-32 0 -48.5 -20.5t-26.5 -53.5
q-13 -42 -41.5 -64.5t-66.5 -22.5t-59 23t-13 64q6 33 -4.5 53.5t-42.5 20.5q-35 0 -58.5 -31.5t-35.5 -80.5q-17 -66 -60.5 -97.5t-97.5 -31.5q-30 0 -52 10t-35 27.5t-17 41t2 50.5q20 96 60 166.5t91 117t108.5 69t111.5 22.5q55 0 97 -27.5t70 -71.5q46 44 100.5 71.5
t116.5 27.5q37 0 70 -11.5t59 -33t43 -52.5t21 -71q23 24 46.5 59.5t42.5 77.5z" />
    <glyph glyph-name="maichattawathai.alt4" 
d="M108 3058q9 39 31 72t52.5 56.5t68 37t76.5 13.5t70.5 -13.5t51.5 -37t28 -56.5t-1 -72l-12 -60h136q30 0 53 -11.5t36.5 -31t17.5 -46.5t-2 -57q-7 -30 -22.5 -56.5t-37.5 -46t-49.5 -31t-57.5 -11.5h-136l-13 -60q-8 -39 -30 -72t-53 -56.5t-68 -37t-76 -13.5
t-70.5 13.5t-51.5 37t-28 56.5t0 72l13 60h-135q-30 0 -53 11.5t-36.5 31t-17.5 46.5t2 57t21.5 56.5t38 46t50 31t57.5 11.5h135z" />
    <glyph glyph-name="maiekthai.alt5" 
d="M-131 2658q-8 -41 -30.5 -74.5t-54 -58.5t-70 -38.5t-78.5 -13.5t-72.5 13.5t-54 38.5t-29.5 58.5t0 74.5l54 254q9 40 31.5 74t54.5 59t70.5 38.5t78.5 13.5t72.5 -13.5t53.5 -38.5t29 -59t-1 -74z" />
    <glyph glyph-name="maithothai.alt5" 
d="M-27 2958q21 31 49 53t59 33t62.5 10t59.5 -15q27 -14 44 -38.5t21.5 -54t-3.5 -62.5t-29 -64q-48 -69 -117 -129t-158 -103.5t-198 -68.5t-236 -25h-141q-29 0 -50 10.5t-33.5 29t-16 43t2.5 52.5l29 136h-48q-28 0 -49 10.5t-33.5 29t-16 43t2.5 52.5t20.5 52.5
t34.5 43t45.5 29t53.5 10.5h243q28 0 49 -10.5t33.5 -29t16 -43t-2.5 -52.5l-25 -115q58 1 108.5 16t92.5 38.5t75 54t55 64.5z" />
    <glyph glyph-name="maitrithai.alt5" 
d="M31 2943q14 29 37.5 51t51 35.5t57.5 18t57 -2.5q31 -8 50 -25.5t26 -41.5t3 -52t-18 -57q-34 -67 -81 -130.5t-101 -115.5t-113 -87.5t-116 -45.5h-114q-38 0 -58.5 24.5t-15.5 62.5q4 26 5 50t-3.5 43t-15.5 30t-31 11q-32 0 -49 -20.5t-27 -53.5q-13 -42 -41.5 -64.5
t-66.5 -22.5t-59 23t-13 64q6 33 -4.5 53.5t-42.5 20.5q-35 0 -58.5 -31.5t-35.5 -80.5q-17 -66 -60.5 -97.5t-97.5 -31.5q-30 0 -52 10t-35 27.5t-17 41t2 50.5q20 96 60 166.5t91 117t108.5 69t111.5 22.5q55 0 97 -27.5t70 -71.5q46 44 101 71.5t117 27.5q37 0 70 -11.5
t59 -33t43 -52.5t21 -71q23 24 46 59.5t42 77.5z" />
    <glyph glyph-name="maichattawathai.alt5" 
d="M-427 3058q9 39 31 72t52.5 56.5t68 37t76.5 13.5t70.5 -13.5t51.5 -37t28 -56.5t-1 -72l-12 -60h135q30 0 53 -11.5t36.5 -31t17.5 -46.5t-2 -57q-7 -30 -22.5 -56.5t-37.5 -46t-49.5 -31t-57.5 -11.5h-135l-13 -60q-8 -39 -30 -72t-53 -56.5t-68 -37t-76 -13.5
t-70.5 13.5t-52 37t-28 56.5t0.5 72l13 60h-136q-30 0 -53 11.5t-36.5 31t-17.5 46.5t2 57t21.5 56.5t38 46t50 31t57.5 11.5h136z" />
    <glyph glyph-name="sarauthai.alt6" 
d="M-614 -773q-8 -39 -30 -72.5t-53 -57.5t-68.5 -37.5t-76.5 -13.5t-71 13.5t-53 37.5t-29 57.5t0 72.5l58 273h-78q-31 0 -54 12t-37 32.5t-18.5 47.5t1.5 58q7 31 23 58t39 47t51 32t59 12h319q31 0 54 -12t37.5 -32t19 -47t-2.5 -58z" />
    <glyph glyph-name="sarauuthai.alt6" 
d="M-680 -371q8 39 30.5 74t54 60.5t69.5 40.5t77 15t70.5 -15t52 -40.5t28 -60.5t-0.5 -74l-20 -93q-20 -94 -63 -177.5t-114 -146t-172 -99t-236 -36.5q-122 0 -204 29.5t-130 82t-63.5 125.5t-4.5 161l-31 1q-33 0 -58.5 12.5t-40.5 34.5t-20 51.5t2 62.5t24.5 62.5
t42 51.5t55.5 34.5t64 12.5h260q33 0 58 -12.5t40.5 -34.5t20 -51.5t-2.5 -62.5l-21 -101q-14 -65 4.5 -98t74.5 -33q107 0 134 131z" />
    <glyph glyph-name="phinthuthai.alt6" 
d="M-1016 -389q11 54 42 101.5t74.5 83t95.5 56.5t106 21q52 0 94.5 -21t70 -56.5t38 -83t-0.5 -101.5q-11 -52 -42 -99t-73.5 -82t-94 -56t-103.5 -21q-54 0 -97 21t-71.5 56t-39 82t0.5 99z" />
    <glyph glyph-name="sarauthai.alt7" 
d="M-564 -773q-8 -39 -30 -72.5t-53 -57.5t-68.5 -37.5t-76.5 -13.5t-71 13.5t-53 37.5t-29 57.5t0 72.5l58 273h-78q-31 0 -54 12t-37 32.5t-18.5 47.5t1.5 58q7 31 23 58t39 47t51 32t59 12h319q31 0 54 -12t37.5 -32t19 -47t-2.5 -58z" />
    <glyph glyph-name="sarauuthai.alt7" 
d="M-934 -371q8 39 30.5 74t54 60.5t69.5 40.5t77 15t70.5 -15t52 -40.5t28 -60.5t-0.5 -74l-20 -93q-20 -94 -63 -177.5t-114 -146t-172 -99t-236 -36.5q-122 0 -204 29.5t-130 82t-63.5 125.5t-4.5 161l-31 1q-33 0 -58.5 12.5t-40.5 34.5t-20 51.5t2 62.5t24.5 62.5
t42 51.5t55.5 34.5t64 12.5h260q33 0 58 -12.5t40.5 -34.5t20 -51.5t-2.5 -62.5l-21 -101q-14 -65 4.5 -98t74.5 -33q107 0 134 131z" />
    <glyph glyph-name="phinthuthai.alt7" 
d="M-1016 -389q11 54 42 101.5t74.5 83t95.5 56.5t106 21q52 0 94.5 -21t70 -56.5t38 -83t-0.5 -101.5q-11 -52 -42 -99t-73.5 -82t-94 -56t-103.5 -21q-54 0 -97 21t-71.5 56t-39 82t0.5 99z" />
    <glyph glyph-name="maihanakatthai.alt8" 
d="M-805 2236q8 38 29.5 70t51.5 55t66.5 36t74.5 13t69 -13t51 -36t27.5 -55t-0.5 -70h1164q33 0 58 -12.5t40 -34.5t20 -51t-2 -62t-24.5 -62t-42 -50.5t-54.5 -34t-63 -12.5h-1348q-38 0 -69 13t-51.5 36t-28 55t0.5 70z" />
    <glyph glyph-name="maiekthai.alt8" 
d="M-95 2823q-9 -41 -31.5 -74.5t-54 -58.5t-70 -38.5t-78.5 -13.5t-72.5 13.5t-53.5 38.5t-29.5 58.5t0.5 74.5l49 232q9 40 31.5 74t54 59t70 38.5t78.5 13.5t72.5 -13.5t53.5 -38.5t29.5 -59t-0.5 -74z" />
    <glyph glyph-name="maithothai.alt8" 
d="M12 3122q21 31 48.5 53t57.5 33t61 10t59 -15q27 -14 43.5 -38.5t21 -54t-3 -62.5t-28.5 -64q-48 -69 -117.5 -129t-158.5 -103.5t-198 -68.5t-236 -25h-141q-29 0 -50 10.5t-33 29t-15.5 43t2.5 52.5l29 136h-48q-28 0 -49 10.5t-33.5 29t-16 43t2.5 52.5t20 52.5
t34.5 43t45.5 29t53 10.5h243q28 0 49 -10.5t33.5 -29t16.5 -43t-2 -52.5l-25 -115q57 1 108.5 16t94.5 38.5t76.5 54t55.5 64.5z" />
    <glyph glyph-name="maitrithai.alt8" 
d="M67 3108q14 29 37.5 51t51 35.5t57.5 18t57 -2.5q31 -8 50 -25.5t26 -41.5t3 -52t-18 -57q-34 -67 -81 -130.5t-101 -115.5t-113 -87.5t-116 -45.5h-114q-38 0 -58.5 24.5t-15.5 62.5q4 26 5 50t-3.5 43t-15.5 30t-31 11q-32 0 -49 -20.5t-27 -53.5q-13 -42 -41.5 -64.5
t-66.5 -22.5t-59 23t-13 64q6 33 -4.5 53.5t-42.5 20.5q-35 0 -58.5 -31.5t-35.5 -80.5q-16 -66 -60 -97.5t-98 -31.5q-30 0 -52 10t-35 27.5t-17 41t2 50.5q20 96 60 166.5t91 117t108.5 69t111.5 22.5q55 0 97 -27.5t70 -71.5q46 44 101 71.5t117 27.5q37 0 70 -11.5
t59.5 -33t43 -52.5t20.5 -71q23 24 46 59.5t42 77.5z" />
    <glyph glyph-name="maichattawathai.alt8" 
d="M-392 3222q8 39 30 72t52.5 56.5t68 37t76.5 13.5t70.5 -13.5t51.5 -37t28 -56.5t0 -72l-12 -60h135q30 0 53 -11.5t36.5 -31t17.5 -46.5t-2 -57q-7 -30 -22.5 -56.5t-37.5 -46t-49.5 -31t-57.5 -11.5h-135l-13 -60q-8 -39 -30 -72t-53 -56.5t-68 -37t-76 -13.5
t-70.5 13.5t-52 37t-28 56.5t0.5 72l13 60h-136q-30 0 -53 11.5t-36.5 31t-17.5 46.5t2 57t21.5 56.5t38 46t50 31t57.5 11.5h136z" />
    <glyph glyph-name="maihanakatthai.alt9" 
d="M-805 2236q8 38 29.5 70t51.5 55t66.5 36t74.5 13t69 -13t51 -36t27.5 -55t-0.5 -70h949q33 0 58 -12.5t40 -34.5t20 -51t-2 -62t-24.5 -62t-42 -50.5t-54.5 -34t-63 -12.5h-1133q-38 0 -69 13t-51.5 36t-28 55t0.5 70z" />
    <glyph glyph-name="maithothai.alt9" 
d="M241 3092q21 31 49 53t59.5 33t63.5 10t60 -15q27 -14 43.5 -38.5t21 -54t-3.5 -62.5t-29 -64q-48 -69 -117 -129t-158.5 -103.5t-198 -68.5t-235.5 -25h-141q-29 0 -50 10.5t-33 29t-15.5 43t2.5 52.5l29 136h-48q-28 0 -49 10.5t-33.5 29t-16.5 43t2 52.5t20.5 52.5
t34.5 43t45.5 29t53.5 10.5h243q28 0 49 -10.5t33.5 -29t16 -43t-2.5 -52.5l-24 -115q58 4 108.5 19t92 38t74 52.5t54.5 63.5z" />
    <glyph glyph-name="maitrithai.alt9" 
d="M401 3078q14 29 37 51t50.5 35.5t57.5 18t57 -2.5q31 -8 50 -25.5t26.5 -41.5t3.5 -52t-18 -57q-34 -67 -81 -130.5t-101.5 -115.5t-113.5 -87.5t-117 -45.5h-114q-38 0 -58 24.5t-15 62.5q4 26 4.5 50t-4 43t-15.5 30t-31 11q-32 0 -48 -20.5t-26 -53.5
q-13 -42 -42 -64.5t-67 -22.5t-58.5 23t-12.5 64q6 33 -5 53.5t-43 20.5q-35 0 -58.5 -31.5t-34.5 -80.5q-17 -66 -61 -97.5t-98 -31.5q-30 0 -52 10t-34.5 27.5t-16.5 41t2 50.5q20 96 60 166.5t91 117t108 69t111 22.5q55 0 97.5 -27.5t69.5 -71.5q47 44 101 71.5
t116 27.5q37 0 70 -11.5t59.5 -33t43.5 -52.5t21 -71q23 24 46.5 59.5t42.5 77.5z" />
    <glyph glyph-name="saraithai.alt10" 
d="M186 2236q33 0 57.5 -12.5t39.5 -34.5t20 -51t-2 -62t-24 -62t-41.5 -50.5t-54.5 -34t-63 -12.5h-1105q-33 0 -58 12.5t-40 34t-19.5 50.5t2.5 62t24 62t41.5 51t54.5 34.5t63 12.5h1105z" />
    <glyph glyph-name="saraiithai.alt10" 
d="M-987 1917q-33 0 -58 12.5t-40 34t-19.5 50.5t2.5 62t24 62t41.5 51t54.5 34.5t63 12.5h838l19 89q9 41 31.5 76t55 60t71.5 39t80 14t74 -14t54.5 -39t30 -60t-0.5 -76l-47 -219q-9 -41 -32 -76t-55 -60t-71 -39t-80 -14h-1036z" />
    <glyph glyph-name="sarauethai.alt10" 
d="M-987 1917q-33 0 -58 12.5t-40 34t-19.5 50.5t2.5 62t24 62t41.5 51t54.5 34.5t63 12.5h654l3 13q13 64 49.5 121t87.5 99t113 66.5t126 24.5t115.5 -25t84.5 -68t45 -100.5t-1 -121.5q-15 -71 -52 -131t-88.5 -104t-113.5 -68.5t-126 -24.5h-965zM-62 2249
q-5 -22 -0.5 -41.5t16.5 -34t30 -23t41 -8.5t45 8.5t40 23t31 34t18 41.5q5 23 0.5 43t-16.5 35t-30.5 23.5t-41.5 8.5t-45 -8.5t-40 -23.5t-30.5 -35t-17.5 -43z" />
    <glyph glyph-name="saraueethai.alt10" 
d="M-987 1917q-33 0 -58 12.5t-40 34t-19.5 50.5t2.5 62t24 62t41.5 51t54.5 34.5t63 12.5h449l26 124q7 34 26 62.5t45.5 48.5t59 31.5t66.5 11.5t61.5 -11.5t45.5 -31.5t24.5 -48.5t-0.5 -62.5l-26 -124h131l25 124q7 34 26 62.5t45.5 48.5t59 31.5t66.5 11.5t61.5 -11.5
t45 -31.5t24 -48.5t-0.5 -62.5l-54 -254q-9 -41 -32 -76t-55 -60t-71 -39t-80 -14h-1036z" />
    <glyph glyph-name="maiekupperleftthai.alt11" 
d="M-234 2823q-9 -41 -31.5 -74.5t-54 -58.5t-70 -38.5t-78.5 -13.5t-72.5 13.5t-53.5 38.5t-29.5 58.5t0.5 74.5l48 228q9 40 31.5 74t54 59t70 38.5t78.5 13.5t72.5 -13.5t53.5 -38.5t29.5 -59t-0.5 -74z" />
    <glyph glyph-name="maichattawaupperleftthai.alt11" 
d="M-530 3222q8 39 30 72t52.5 56.5t68 37t76.5 13.5t70.5 -13.5t52 -37t28 -56.5t-0.5 -72l-12 -60h136q30 0 52.5 -11.5t36 -31t17.5 -46.5t-2 -57q-7 -30 -22.5 -56.5t-37 -46t-49 -31t-57.5 -11.5h-136l-13 -60q-8 -39 -30 -72t-53 -56.5t-68 -37t-76 -13.5t-70.5 13.5
t-52 37t-28 56.5t0.5 72l13 60h-136q-30 0 -53 11.5t-36.5 31t-17.5 46.5t2 57t21.5 56.5t38 46t50 31t57.5 11.5h136z" />
    </font>
</defs>
</svg>
