<svg xmlns="http://www.w3.org/2000/svg">
<defs>
<font id="DBHelvethaicaMonX-65Med" horiz-adv-x="0" >
  <font-face 
    font-family="DB HelvethaicaMon X 65 Med"
    font-weight="500"
    font-stretch="normal"
    units-per-em="4096"
    panose-1="2 0 5 6 9 0 0 2 0 4"
    ascent="3276"
    descent="-820"
    x-height="1453"
    cap-height="2018"
    bbox="-2123 -1339 3457 3317"
    underline-thickness="82"
    underline-position="-627"
    unicode-range="U+0020-F882"
  />
<missing-glyph horiz-adv-x="1151" 
d="M1176 1114v-41h16q20 0 20 29q-1 3 -4 6q-6 6 -16 6h-16zM1184 1069h-8v-37h-13v94h29q15 0 24 -6t9 -18q0 -25 -8.5 -29t-20.5 -4l29 -37h-13zM1192 1020q17 0 28.5 5.5t19 13.5t10.5 17t3 17q0 34 -16.5 50t-44.5 16t-47 -16t-19 -50q0 -22 14.5 -37.5t51.5 -15.5z
M1192 1147q34 0 52 -20t18 -54q0 -22 -18 -41.5t-52 -19.5q-37 0 -55.5 19.5t-18.5 41.5q0 34 18.5 54t55.5 20zM561 881q27 -3 63.5 -7.5t76.5 -10.5t81.5 -13.5t78.5 -16.5t65.5 -19.5t44.5 -22.5q-29 54 -75 96.5t-101.5 72t-116.5 45t-121 15.5q-48 0 -94.5 -9
t-89 -27.5t-78.5 -46.5t-62 -65q50 4 101 6.5t100 2.5h127zM1049 1102v-397q-140 40 -311.5 69t-360.5 29q-133 0 -262 -12q12 61 48.5 117.5t93.5 99.5t132 68.5t164 25.5q86 0 155 -19.5t121.5 -48.5t88 -62t53.5 -59v189h78zM426 352q0 25 -15 35t-30 10q-25 0 -37 -10
t-12 -35q0 -41 49 -41q15 0 30 10t15 31zM90 389q0 63 25.5 112.5t67 83.5t94.5 52t108 18q57 0 108.5 -15.5t90 -47.5t61.5 -80.5t23 -114.5v-323h303v565h78v-635h-533v70h82v332q0 44 -16.5 76.5t-45 53.5t-66.5 31.5t-81 10.5t-83 -12t-70.5 -35.5t-49 -57t-18.5 -76.5
v-295l164 164q-6 1 -16.5 7.5t-20.5 17t-17.5 26t-7.5 35.5q0 53 31 82t84 29q23 0 43 -8.5t35 -23.5t24 -35.5t9 -43.5q0 -18 -5.5 -33.5t-13 -26.5t-16.5 -18t-15 -8q-2 -6 -14.5 -18.5t-31.5 -30.5t-42.5 -41t-46.5 -49q-31 -28 -64 -58.5t-67 -64.5h-90v385z" />
    <glyph glyph-name="plusminus" unicode="&#x2b;&#x2d;" horiz-adv-x="1679" 
d="M707 1671q0 71 35.5 116t97.5 45t97.5 -45t35.5 -116v-449h446q73 0 117 -35t44 -95t-44 -95t-117 -35h-446v-450q0 -70 -35.5 -115t-97.5 -45t-97.5 45t-35.5 115v450h-446q-36 0 -66 11t-51 29t-32.5 41.5t-11.5 48.5q0 60 44 95t117 35h446v449zM1419 260
q73 0 117 -35t44 -95t-44 -95t-117 -35h-1158q-36 0 -66 11t-51 29t-32.5 41.5t-11.5 48.5q0 60 44 95t117 35h1158z" />
    <glyph glyph-name="ellipsis" unicode="&#x2e;&#x2e;&#x2e;" horiz-adv-x="2777" 
d="M251 196q0 43 16.5 81.5t45.5 67.5t67 45.5t82 16.5q43 0 81.5 -16.5t67.5 -45.5t45.5 -67.5t16.5 -81.5q0 -44 -16.5 -82t-45.5 -67t-67.5 -45.5t-81.5 -16.5q-44 0 -82 16.5t-67 45.5t-45.5 67t-16.5 82zM1174 196q0 43 16.5 81.5t45.5 67.5t67 45.5t82 16.5
q43 0 81.5 -16.5t67.5 -45.5t45.5 -67.5t16.5 -81.5q0 -44 -16.5 -82t-45.5 -67t-67.5 -45.5t-81.5 -16.5q-44 0 -82 16.5t-67 45.5t-45.5 67t-16.5 82zM2099 196q0 43 16.5 81.5t45.5 67.5t67 45.5t82 16.5q43 0 81.5 -16.5t67.5 -45.5t45.5 -67.5t16.5 -81.5
q0 -44 -16.5 -82t-45.5 -67t-67.5 -45.5t-81.5 -16.5q-44 0 -82 16.5t-67 45.5t-45.5 67t-16.5 82z" />
    <glyph glyph-name="lessequal" unicode="&#x3c;&#x3d;" horiz-adv-x="1786" 
d="M564 1131l926 -404q29 -14 54.5 -31.5t41 -41t19 -52.5t-12.5 -66q-19 -44 -47.5 -62.5t-62.5 -20.5t-70.5 9.5t-70.5 27.5l-1107 509q-36 17 -60.5 52.5t-24.5 79.5t24.5 79.5t60.5 52.5l1128 517q37 17 72 26.5t66 5t56.5 -25.5t42.5 -65q13 -33 8.5 -61.5t-20.5 -51.5
t-41 -40.5t-53 -30.5zM1443 270q33 0 62 -7t50.5 -23t34.5 -41.5t13 -62.5q0 -38 -13 -64t-34.5 -42t-50.5 -23t-62 -7h-1136q-33 0 -62.5 7t-51 23t-34 42t-12.5 64q0 37 12.5 62.5t34 41.5t51 23t62.5 7h1136z" />
    <glyph glyph-name="greaterequal" unicode="&#x3e;&#x3d;" horiz-adv-x="1786" 
d="M293 1537q-29 13 -53.5 30.5t-40.5 40.5t-20.5 51.5t8.5 61.5q17 44 42.5 65t56.5 25.5t66 -5t72 -26.5l1128 -517q36 -17 60.5 -52.5t24.5 -79.5t-24.5 -79.5t-60.5 -52.5l-1107 -509q-34 -16 -70.5 -27.5t-70.5 -9.5t-62.5 20.5t-47.5 62.5q-16 37 -12.5 66t19 52.5
t41 41t54.5 31.5l926 404zM1479 270q33 0 62.5 -7t51 -23t34 -41.5t12.5 -62.5q0 -38 -12.5 -64t-34 -42t-51 -23t-62.5 -7h-1136q-33 0 -62 7t-50.5 23t-34.5 42t-13 64q0 37 13 62.5t34.5 41.5t50.5 23t62 7h1136z" />
    <glyph glyph-name="fongmanfunnuthai" unicode="&#xe4f;&#x22;" horiz-adv-x="2077" 
d="M147 836q0 122 32 234.5t89.5 210t139 178t180 137.5t212 88.5t236.5 31.5q121 0 233 -31.5t209.5 -88.5t177.5 -137.5t137 -178t88.5 -210t31.5 -234.5t-31.5 -234.5t-88.5 -210.5t-137 -178.5t-177.5 -137.5t-209.5 -88.5t-233 -31.5q-123 0 -236.5 31.5t-212 88.5
t-180 137.5t-139 178.5t-89.5 210.5t-32 234.5zM565 844q0 94 37.5 178t101.5 147.5t149.5 100.5t182.5 37q94 0 177.5 -37t146 -100.5t99 -147.5t36.5 -178q0 -97 -36.5 -182t-99 -148.5t-146 -100t-177.5 -36.5q-97 0 -182.5 36.5t-149.5 100t-101.5 148.5t-37.5 182z
M782 844q0 -54 19 -100.5t53 -80.5t80.5 -53.5t101.5 -19.5q51 0 95 19.5t76.5 53.5t51.5 80.5t19 100.5q0 51 -19 95.5t-51.5 78t-76.5 53t-95 19.5q-55 0 -101.5 -19.5t-80.5 -53t-53 -78t-19 -95.5zM393 844q0 -132 50 -249t136.5 -204.5t204 -138.5t252.5 -51
q87 0 168 23t151.5 65.5t128.5 101t99.5 130t64.5 153.5t23 170t-23 169.5t-64.5 152t-99.5 128t-128.5 99t-151.5 64t-168 22.5q-135 0 -252.5 -49.5t-204 -136t-136.5 -202t-50 -247.5zM1136 2312q0 59 34 97t93 38t93.5 -38t34.5 -97v-251q0 -59 -34.5 -96.5t-93.5 -37.5
t-93 37.5t-34 96.5v251zM686 2312q0 59 34.5 97t93.5 38t93.5 -38t34.5 -97v-251q0 -59 -34.5 -96.5t-93.5 -37.5t-93.5 37.5t-34.5 96.5v251z" />
    <glyph glyph-name="dochadaphinthuthai" unicode="&#xe0e;&#xe3a;" horiz-adv-x="1839" 
d="M1282 -918q0 48 18 89.5t49 73t72.5 49.5t89.5 18q46 0 87 -18t72 -49.5t49 -73t18 -89.5q0 -46 -18 -87t-49 -71.5t-72 -48.5t-87 -18q-48 0 -89.5 18t-72.5 48.5t-49 71.5t-18 87zM1684 -390q0 -43 -16.5 -81t-45 -66t-67 -44.5t-81.5 -16.5q-46 0 -85.5 18t-68.5 50
q-26 29 -61.5 54.5t-83.5 44.5t-110 30t-140 11q-50 0 -96 -13.5t-90 -37.5t-86.5 -56.5t-83.5 -70.5q-19 -18 -43 -25t-48.5 -4.5t-47.5 14t-40 30.5q-18 21 -24.5 45.5t-3.5 49t14 47.5t28 42q51 57 114 104t131 80.5t139 51.5t137 18q78 0 142 -9t115.5 -23.5t91 -33
t69.5 -36.5v1257q0 71 -22 140t-73 124t-135 89.5t-208 36.5q-103 1 -180 -22.5t-130.5 -59.5t-84 -77t-39.5 -75q53 -46 86 -123.5t33 -167.5v-768q0 -29 -10.5 -53.5t-29.5 -43.5t-44 -29.5t-53 -10.5h-272q-29 0 -52 10.5t-40 29.5t-26 43.5t-9 53.5q0 28 9 53t26 44
t40 29.5t52 10.5h73v635q0 44 -9.5 89t-37.5 86q-25 36 -43 57.5t-26 41t-4.5 42t21.5 61.5q38 84 100.5 162t154 137.5t214.5 95t282 35.5q148 0 263.5 -27t202 -75.5t146 -114.5t96.5 -144.5t53.5 -165.5t16.5 -177v-1402z" />
    <glyph glyph-name="topatakphintuthai" unicode="&#xe0f;&#xe3a;" horiz-adv-x="1839" 
d="M1282 -918q0 48 18 89.5t49 73t72.5 49.5t89.5 18q46 0 87 -18t72 -49.5t49 -73t18 -89.5q0 -46 -18 -87t-49 -71.5t-72 -48.5t-87 -18q-48 0 -89.5 18t-72.5 48.5t-49 71.5t-18 87zM1684 -405q0 -40 -15.5 -75t-41.5 -61.5t-61.5 -41.5t-75.5 -15q-57 0 -102.5 29
t-69.5 77q-11 22 -25.5 42t-33 35.5t-41.5 24.5t-51 9t-51 -9t-41 -24.5t-31.5 -35.5t-22.5 -42q-19 -47 -61.5 -76.5t-96.5 -29.5t-96.5 30.5t-60.5 78.5q-7 21 -18.5 41t-28 36t-39 25.5t-51.5 9.5q-26 0 -46.5 -9.5t-35.5 -26t-26 -38t-17 -45.5q-7 -27 -23.5 -48.5
t-39 -35t-49.5 -17.5t-54 3t-48 23.5t-34 39t-17 49t2 54.5q18 80 56 138.5t88 96.5t107 56t113 18q99 0 176 -40.5t127 -114.5q28 35 62 62t71 45t74 27t71 9q75 0 127.5 -22t89.5 -56v1249q0 71 -22 140t-73 124t-135 89.5t-208 36.5q-103 1 -180 -22.5t-130.5 -59.5
t-84 -77t-39.5 -75q53 -46 86 -123.5t33 -167.5v-768q0 -29 -10.5 -53.5t-29.5 -43.5t-44 -29.5t-53 -10.5h-272q-29 0 -52 10.5t-40 29.5t-26 43.5t-9 53.5q0 28 9 53t26 44t40 29.5t52 10.5h73v635q0 44 -9.5 89t-37.5 86q-25 36 -43 57.5t-26 41t-4.5 42t21.5 61.5
q38 84 100.5 162t154 137.5t214.5 95t282 35.5q148 0 263.5 -27t202 -75.5t146 -114.5t96.5 -144.5t53.5 -165.5t16.5 -177v-1417z" />
    <glyph glyph-name="dochadasarauthai" unicode="&#xe0e;&#xe38;" horiz-adv-x="1839" 
d="M1683 -1191q0 -33 -12.5 -60t-33.5 -46.5t-49.5 -30.5t-61.5 -11t-61.5 11t-50 30.5t-34 46.5t-12.5 60v250h-68q-27 0 -48.5 10t-37.5 27.5t-24.5 41t-8.5 50.5t8.5 50.5t24.5 41t37.5 27.5t48.5 10h264q27 0 48.5 -10t37.5 -27.5t24.5 -41t8.5 -50.5v-379zM1684 -390
q0 -43 -16.5 -81t-45 -66t-67 -44.5t-81.5 -16.5q-46 0 -85.5 18t-68.5 50q-26 29 -61.5 54.5t-83.5 44.5t-110 30t-140 11q-50 0 -96 -13.5t-90 -37.5t-86.5 -56.5t-83.5 -70.5q-19 -18 -43 -25t-48.5 -4.5t-47.5 14t-40 30.5q-18 21 -24.5 45.5t-3.5 49t14 47.5t28 42
q51 57 114 104t131 80.5t139 51.5t137 18q78 0 142 -9t115.5 -23.5t91 -33t69.5 -36.5v1257q0 71 -22 140t-73 124t-135 89.5t-208 36.5q-103 1 -180 -22.5t-130.5 -59.5t-84 -77t-39.5 -75q53 -46 86 -123.5t33 -167.5v-768q0 -29 -10.5 -53.5t-29.5 -43.5t-44 -29.5
t-53 -10.5h-272q-29 0 -52 10.5t-40 29.5t-26 43.5t-9 53.5q0 28 9 53t26 44t40 29.5t52 10.5h73v635q0 44 -9.5 89t-37.5 86q-25 36 -43 57.5t-26 41t-4.5 42t21.5 61.5q38 84 100.5 162t154 137.5t214.5 95t282 35.5q148 0 263.5 -27t202 -75.5t146 -114.5t96.5 -144.5
t53.5 -165.5t16.5 -177v-1402z" />
    <glyph glyph-name="topataksarauthai" unicode="&#xe0f;&#xe38;" horiz-adv-x="1839" 
d="M1683 -1191q0 -33 -12.5 -60t-33.5 -46.5t-49.5 -30.5t-61.5 -11t-61.5 11t-50 30.5t-34 46.5t-12.5 60v250h-68q-27 0 -48.5 10t-37.5 27.5t-24.5 41t-8.5 50.5t8.5 50.5t24.5 41t37.5 27.5t48.5 10h264q27 0 48.5 -10t37.5 -27.5t24.5 -41t8.5 -50.5v-379zM1684 -405
q0 -40 -15.5 -75t-41.5 -61.5t-61.5 -41.5t-75.5 -15q-57 0 -102.5 29t-69.5 77q-11 22 -25.5 42t-33 35.5t-41.5 24.5t-51 9t-51 -9t-41 -24.5t-31.5 -35.5t-22.5 -42q-19 -47 -61.5 -76.5t-96.5 -29.5t-96.5 30.5t-60.5 78.5q-7 21 -18.5 41t-28 36t-39 25.5t-51.5 9.5
q-26 0 -46.5 -9.5t-35.5 -26t-26 -38t-17 -45.5q-7 -27 -23.5 -48.5t-39 -35t-49.5 -17.5t-54 3t-48 23.5t-34 39t-17 49t2 54.5q18 80 56 138.5t88 96.5t107 56t113 18q99 0 176 -40.5t127 -114.5q28 35 62 62t71 45t74 27t71 9q75 0 127.5 -22t89.5 -56v1249q0 71 -22 140
t-73 124t-135 89.5t-208 36.5q-103 1 -180 -22.5t-130.5 -59.5t-84 -77t-39.5 -75q53 -46 86 -123.5t33 -167.5v-768q0 -29 -10.5 -53.5t-29.5 -43.5t-44 -29.5t-53 -10.5h-272q-29 0 -52 10.5t-40 29.5t-26 43.5t-9 53.5q0 28 9 53t26 44t40 29.5t52 10.5h73v635
q0 44 -9.5 89t-37.5 86q-25 36 -43 57.5t-26 41t-4.5 42t21.5 61.5q38 84 100.5 162t154 137.5t214.5 95t282 35.5q148 0 263.5 -27t202 -75.5t146 -114.5t96.5 -144.5t53.5 -165.5t16.5 -177v-1417z" />
    <glyph glyph-name="dochadasarauuthai" unicode="&#xe0e;&#xe39;" horiz-adv-x="1839" 
d="M1368 -811q0 33 12.5 60t34 46.5t50 30t61.5 10.5t61.5 -10.5t49.5 -30t33.5 -46.5t12.5 -60v-102q0 -87 -23.5 -164.5t-77.5 -135.5t-140.5 -92t-212.5 -34q-119 0 -203.5 28.5t-140 81t-83.5 125.5t-32 162h-64q-27 0 -48.5 10t-37.5 27.5t-24.5 41t-8.5 50.5t8.5 50.5
t24.5 41t37.5 27.5t48.5 10h264q27 0 48.5 -10t37.5 -27.5t24.5 -41t8.5 -50.5v-100q0 -80 34 -122t106 -42q68 0 103.5 42t35.5 122v102zM1684 -390q0 -43 -16.5 -81t-45 -66t-67 -44.5t-81.5 -16.5q-46 0 -85.5 18t-68.5 50q-26 29 -61.5 54.5t-83.5 44.5t-110 30t-140 11
q-50 0 -96 -13.5t-90 -37.5t-86.5 -56.5t-83.5 -70.5q-19 -18 -43 -25t-48.5 -4.5t-47.5 14t-40 30.5q-18 21 -24.5 45.5t-3.5 49t14 47.5t28 42q51 57 114 104t131 80.5t139 51.5t137 18q78 0 142 -9t115.5 -23.5t91 -33t69.5 -36.5v1257q0 71 -22 140t-73 124t-135 89.5
t-208 36.5q-103 1 -180 -22.5t-130.5 -59.5t-84 -77t-39.5 -75q53 -46 86 -123.5t33 -167.5v-768q0 -29 -10.5 -53.5t-29.5 -43.5t-44 -29.5t-53 -10.5h-272q-29 0 -52 10.5t-40 29.5t-26 43.5t-9 53.5q0 28 9 53t26 44t40 29.5t52 10.5h73v635q0 44 -9.5 89t-37.5 86
q-25 36 -43 57.5t-26 41t-4.5 42t21.5 61.5q38 84 100.5 162t154 137.5t214.5 95t282 35.5q148 0 263.5 -27t202 -75.5t146 -114.5t96.5 -144.5t53.5 -165.5t16.5 -177v-1402z" />
    <glyph glyph-name="topataksarauuthai" unicode="&#xe0f;&#xe39;" horiz-adv-x="1839" 
d="M1368 -811q0 33 12.5 60t34 46.5t50 30t61.5 10.5t61.5 -10.5t49.5 -30t33.5 -46.5t12.5 -60v-102q0 -87 -23.5 -164.5t-77.5 -135.5t-140.5 -92t-212.5 -34q-119 0 -203.5 28.5t-140 81t-83.5 125.5t-32 162h-64q-27 0 -48.5 10t-37.5 27.5t-24.5 41t-8.5 50.5t8.5 50.5
t24.5 41t37.5 27.5t48.5 10h264q27 0 48.5 -10t37.5 -27.5t24.5 -41t8.5 -50.5v-100q0 -80 34 -122t106 -42q68 0 103.5 42t35.5 122v102zM1684 -405q0 -40 -15.5 -75t-41.5 -61.5t-61.5 -41.5t-75.5 -15q-57 0 -102.5 29t-69.5 77q-11 22 -25.5 42t-33 35.5t-41.5 24.5
t-51 9t-51 -9t-41 -24.5t-31.5 -35.5t-22.5 -42q-19 -47 -61.5 -76.5t-96.5 -29.5t-96.5 30.5t-60.5 78.5q-7 21 -18.5 41t-28 36t-39 25.5t-51.5 9.5q-26 0 -46.5 -9.5t-35.5 -26t-26 -38t-17 -45.5q-7 -27 -23.5 -48.5t-39 -35t-49.5 -17.5t-54 3t-48 23.5t-34 39t-17 49
t2 54.5q18 80 56 138.5t88 96.5t107 56t113 18q99 0 176 -40.5t127 -114.5q28 35 62 62t71 45t74 27t71 9q75 0 127.5 -22t89.5 -56v1249q0 71 -22 140t-73 124t-135 89.5t-208 36.5q-103 1 -180 -22.5t-130.5 -59.5t-84 -77t-39.5 -75q53 -46 86 -123.5t33 -167.5v-768
q0 -29 -10.5 -53.5t-29.5 -43.5t-44 -29.5t-53 -10.5h-272q-29 0 -52 10.5t-40 29.5t-26 43.5t-9 53.5q0 28 9 53t26 44t40 29.5t52 10.5h73v635q0 44 -9.5 89t-37.5 86q-25 36 -43 57.5t-26 41t-4.5 42t21.5 61.5q38 84 100.5 162t154 137.5t214.5 95t282 35.5
q148 0 263.5 -27t202 -75.5t146 -114.5t96.5 -144.5t53.5 -165.5t16.5 -177v-1417z" />
    <glyph glyph-name=".notdef" horiz-adv-x="1151" 
d="M1176 1114v-41h16q20 0 20 29q-1 3 -4 6q-6 6 -16 6h-16zM1184 1069h-8v-37h-13v94h29q15 0 24 -6t9 -18q0 -25 -8.5 -29t-20.5 -4l29 -37h-13zM1192 1020q17 0 28.5 5.5t19 13.5t10.5 17t3 17q0 34 -16.5 50t-44.5 16t-47 -16t-19 -50q0 -22 14.5 -37.5t51.5 -15.5z
M1192 1147q34 0 52 -20t18 -54q0 -22 -18 -41.5t-52 -19.5q-37 0 -55.5 19.5t-18.5 41.5q0 34 18.5 54t55.5 20zM561 881q27 -3 63.5 -7.5t76.5 -10.5t81.5 -13.5t78.5 -16.5t65.5 -19.5t44.5 -22.5q-29 54 -75 96.5t-101.5 72t-116.5 45t-121 15.5q-48 0 -94.5 -9
t-89 -27.5t-78.5 -46.5t-62 -65q50 4 101 6.5t100 2.5h127zM1049 1102v-397q-140 40 -311.5 69t-360.5 29q-133 0 -262 -12q12 61 48.5 117.5t93.5 99.5t132 68.5t164 25.5q86 0 155 -19.5t121.5 -48.5t88 -62t53.5 -59v189h78zM426 352q0 25 -15 35t-30 10q-25 0 -37 -10
t-12 -35q0 -41 49 -41q15 0 30 10t15 31zM90 389q0 63 25.5 112.5t67 83.5t94.5 52t108 18q57 0 108.5 -15.5t90 -47.5t61.5 -80.5t23 -114.5v-323h303v565h78v-635h-533v70h82v332q0 44 -16.5 76.5t-45 53.5t-66.5 31.5t-81 10.5t-83 -12t-70.5 -35.5t-49 -57t-18.5 -76.5
v-295l164 164q-6 1 -16.5 7.5t-20.5 17t-17.5 26t-7.5 35.5q0 53 31 82t84 29q23 0 43 -8.5t35 -23.5t24 -35.5t9 -43.5q0 -18 -5.5 -33.5t-13 -26.5t-16.5 -18t-15 -8q-2 -6 -14.5 -18.5t-31.5 -30.5t-42.5 -41t-46.5 -49q-31 -28 -64 -58.5t-67 -64.5h-90v385z" />
    <glyph glyph-name=".null" 
 />
    <glyph glyph-name="nonmarkingreturn" horiz-adv-x="791" 
 />
    <glyph glyph-name="space" unicode=" " horiz-adv-x="696" 
 />
    <glyph glyph-name="exclam" unicode="!" horiz-adv-x="1036" 
d="M705 1389q0 -10 -1 -18.5t-3.5 -30.5t-8.5 -65t-15.5 -122.5t-23.5 -203t-34 -305.5q-4 -29 -13 -48.5t-21.5 -31t-29 -16t-35.5 -4.5t-35.5 4.5t-29.5 16t-22 31t-13 48.5q-20 182 -34 305.5t-23.5 203t-15 122.5t-8.5 65t-3.5 30.5t-0.5 18.5v415q0 104 41.5 157
t143.5 53t143.5 -53t41.5 -157v-415zM310 194q0 43 16.5 80.5t44.5 66t66 45t81 16.5t80.5 -16.5t66 -45t45 -66t16.5 -80.5t-16.5 -80.5t-45 -66t-66 -45t-80.5 -16.5t-81 16.5t-66 45t-44.5 66t-16.5 80.5z" />
    <glyph glyph-name="quotedbl" unicode="&#x22;" horiz-adv-x="1225" 
d="M705 1889q0 60 34 97.5t91 37.5t91 -37.5t34 -97.5v-478q0 -60 -34 -97t-91 -37t-91 37t-34 97v478zM274 1889q0 30 9 54.5t25.5 42.5t39.5 28t52 10q57 0 91 -37.5t34 -97.5v-478q0 -60 -34 -97t-91 -37t-91.5 37t-34.5 97v478z" />
    <glyph glyph-name="numbersign" unicode="#" horiz-adv-x="1642" 
d="M449 1172h-120q-36 0 -60.5 10.5t-40 27.5t-22.5 38.5t-7 44.5t7 45t22.5 39t40 27.5t60.5 10.5h158l63 450q4 28 13.5 52.5t26.5 42.5t44 28.5t67 10.5q25 0 47.5 -7t40 -20.5t28 -32.5t10.5 -43q0 -4 -1 -12t-3.5 -26.5t-7 -51t-12.5 -84.5t-19 -127.5t-26 -179.5h276
l63 450q4 28 13 52.5t26.5 42.5t44.5 28.5t67 10.5q25 0 47.5 -7t39.5 -20.5t27 -32.5t10 -43q0 -4 -0.5 -12t-3 -26.5t-7 -51t-12 -84.5t-18 -127.5t-25.5 -179.5h123q34 0 58.5 -10.5t39.5 -27.5t22 -39t7 -45t-7 -44.5t-22 -38.5t-39.5 -27.5t-58.5 -10.5h-160l-48 -350
h120q35 0 60 -10.5t40.5 -27t22.5 -38.5t7 -44q0 -23 -7 -45t-22.5 -39t-40.5 -27.5t-60 -10.5h-158l-65 -447q-4 -28 -13 -52.5t-26 -42.5t-44.5 -28t-67.5 -10q-29 0 -53 10t-40 27t-23.5 39t-4.5 45l63 459h-273l-64 -447q-4 -28 -13.5 -52t-26.5 -42t-44.5 -28.5
t-67.5 -10.5q-25 0 -47.5 7t-39 20.5t-26.5 32t-10 42.5l66 478h-122q-35 0 -59 10.5t-39.5 27.5t-22.5 39t-7 45q0 22 7 44t22.5 38.5t39.5 27t59 10.5h159zM997 1172h-275l-49 -350h274z" />
    <glyph glyph-name="dollar" unicode="$" horiz-adv-x="1618" 
d="M738 850q-142 28 -255.5 77.5t-192.5 120.5t-121 164.5t-42 211.5q0 144 50 253t134.5 183t195 113t231.5 44v164q0 19 6 36.5t16.5 31t25 21.5t30.5 8t30 -8t24.5 -21.5t16.5 -31t6 -36.5v-164q50 -2 115.5 -14.5t133.5 -36.5t133.5 -59t117 -81t83 -103.5t31.5 -126.5
q0 -41 -13 -74t-35.5 -55.5t-52 -34.5t-62.5 -12q-42 0 -71.5 22.5t-56 56.5t-53.5 73.5t-63 73.5t-86 57.5t-121 24.5v-536q85 -20 165.5 -43.5t152 -57t131 -78.5t102.5 -108t67 -146t24 -192q0 -142 -46 -249.5t-130.5 -181.5t-203 -115t-262.5 -50v-175q0 -18 -6 -35.5
t-16.5 -31t-24.5 -21.5t-30 -8t-30.5 8t-25 21.5t-16.5 31t-6 35.5v175q-109 3 -199.5 27t-162.5 63t-126.5 90t-90.5 108t-54 116t-18 115q0 86 43 132t118 46q54 0 86 -17t51.5 -44.5t31 -63t24 -73t30.5 -74t51 -66t84.5 -48.5t131.5 -23v591zM738 1728
q-66 -2 -119 -22.5t-90.5 -53.5t-57.5 -75.5t-20 -88.5q0 -106 71 -169.5t216 -95.5v505zM893 259q58 4 115 21.5t102 51t73 84t28 121.5q0 72 -30 120t-76.5 80t-103 50.5t-108.5 31.5v-560z" />
    <glyph glyph-name="percent" unicode="%" horiz-adv-x="2818" 
d="M558 1464q0 -65 8 -121.5t26.5 -97.5t50 -64.5t78.5 -23.5t78.5 23.5t50 64.5t26.5 97.5t8 121.5q0 61 -8 117t-26.5 98.5t-50 67.5t-78.5 25t-78.5 -25t-50 -67.5t-26.5 -98.5t-8 -117zM1934 534q0 -65 8 -121.5t26.5 -97.5t50 -64.5t78.5 -23.5t78.5 23.5t50 64.5
t26.5 97.5t8 121.5q0 61 -8 117t-26.5 98.5t-50 67.5t-78.5 25t-78.5 -25t-50 -67.5t-26.5 -98.5t-8 -117zM1809 1978q7 13 17 27t23 25t29.5 18t36.5 7q22 0 41.5 -8t34 -21t22.5 -30t8 -34q0 -20 -8 -43t-22 -49l-979 -1850q-7 -13 -17 -26.5t-23 -24.5t-29.5 -18
t-36.5 -7q-23 0 -42 8t-33.5 21t-22.5 29.5t-8 33.5q0 21 8 44t22 49zM254 1464q0 112 25.5 209t82 168.5t145 112t214.5 40.5t214.5 -40.5t145 -112t82 -168.5t25.5 -209t-25.5 -208.5t-82 -168t-145 -112t-214.5 -40.5t-214.5 40.5t-145 112t-82 168t-25.5 208.5z
M1630 534q0 112 25.5 209t82 168.5t145 112t214.5 40.5t214.5 -40.5t145 -112t82 -168.5t25.5 -209q0 -113 -25.5 -209.5t-82 -167.5t-145 -111.5t-214.5 -40.5t-214.5 40.5t-145 111.5t-82 167.5t-25.5 209.5z" />
    <glyph glyph-name="ampersand" unicode="&#x26;" horiz-adv-x="1831" 
d="M1336 682q21 22 39 48.5t34.5 53.5t31.5 54.5t29 52.5q21 38 55.5 57.5t70.5 19.5q29 0 57 -10.5t50 -29t35.5 -43.5t13.5 -54q0 -35 -18.5 -83t-48 -99t-66.5 -99.5t-75 -84.5l175 -214q33 -39 33 -97q0 -28 -12.5 -55.5t-36.5 -49t-58 -35t-77 -13.5q-39 0 -65.5 20.5
t-52.5 49.5l-139 162q-138 -134 -295 -191t-337 -57q-155 0 -266.5 46.5t-183 121.5t-105.5 169.5t-34 189.5q0 107 34 196.5t93 164t139 133.5t173 104q-39 45 -75 91t-64 95t-44.5 102t-16.5 112q0 114 42.5 201.5t114.5 147.5t167 90.5t200 30.5q104 0 184.5 -20
t141 -54.5t102 -80.5t67 -97t37 -104t11.5 -102q0 -79 -26.5 -151t-73.5 -134.5t-111.5 -114t-140.5 -88.5zM648 1544q0 -55 16 -98t43 -79.5t63.5 -69.5t77.5 -68q37 22 80 50t79.5 65t61 84.5t24.5 109.5q0 41 -17 78t-47 64.5t-71 43.5t-89 16t-89 -15t-70 -41.5
t-45.5 -62.5t-16.5 -77zM700 922q-57 -36 -108 -73.5t-90 -82t-61.5 -98t-22.5 -120.5q0 -65 28 -117t73.5 -88.5t104.5 -56t121 -19.5q114 0 205.5 41t161.5 132z" />
    <glyph glyph-name="quotesingle" unicode="'" horiz-adv-x="811" 
d="M280 1889q0 30 9 54.5t25.5 42.5t39.5 28t52 10q57 0 91 -37.5t34 -97.5v-478q0 -60 -34 -97t-91 -37t-91.5 37t-34.5 97v478z" />
    <glyph glyph-name="parenleft" unicode="(" horiz-adv-x="803" 
d="M117 751q0 111 14.5 227t41 234t65 236.5t86.5 234.5q56 131 97.5 213.5t75.5 129.5t63 64.5t61 17.5q27 0 49 -8t38.5 -22.5t25.5 -33t9 -39.5q0 -32 -19 -91t-47 -137q-31 -86 -68 -197t-68.5 -241.5t-53 -278.5t-21.5 -309t21.5 -309t53 -278.5t68.5 -241.5t68 -197
q28 -78 47 -137t19 -91q0 -21 -9 -39.5t-25.5 -33t-38.5 -22.5t-49 -8q-22 0 -41 5.5t-39 21.5t-41.5 45t-47 76t-57 115t-71.5 161q-48 115 -86.5 234t-65 237.5t-41 234.5t-14.5 227z" />
    <glyph glyph-name="parenright" unicode=")" horiz-adv-x="803" 
d="M686 751q0 -111 -14.5 -227t-41 -234.5t-65 -237.5t-86.5 -234q-40 -94 -71.5 -161.5t-57 -114.5t-47 -76t-41.5 -45t-39.5 -21.5t-40.5 -5.5q-27 0 -49 8t-38.5 22.5t-25.5 33t-9 39.5q0 32 19 91t47 137q31 86 68 197t68.5 241.5t53 278.5t21.5 309t-21.5 309
t-53 278.5t-68.5 241.5t-68 197q-28 78 -47 137t-19 91q0 21 9 39.5t25.5 33t38.5 22.5t49 8q31 0 60.5 -17.5t63 -64.5t75.5 -129.5t98 -213.5q48 -116 86.5 -234.5t65 -236.5t41 -234t14.5 -227z" />
    <glyph glyph-name="asterisk" unicode="*" horiz-adv-x="1057" 
d="M424 1971q0 54 27 83.5t77 29.5t77 -29.5t27 -83.5v-256l225 81q15 6 34.5 11t33.5 5q13 0 30.5 -6.5t33.5 -20.5t27 -35.5t11 -50.5q0 -34 -23 -58.5t-66 -38.5l-253 -74l172 -224q11 -16 21 -34.5t10 -37.5q0 -32 -13.5 -52.5t-31.5 -32t-37 -16t-30 -4.5
q-26 0 -48.5 10.5t-36.5 29.5l-162 243l-164 -243q-14 -19 -36 -29.5t-48 -10.5q-11 0 -30 4.5t-37.5 16t-32 32t-13.5 52.5q0 19 10 37.5t21 34.5l172 224q-58 17 -126.5 37t-126.5 37q-89 28 -89 97q0 29 11 50.5t27 35.5t33.5 20.5t30.5 6.5t32.5 -5t34.5 -11l226 -80
v255z" />
    <glyph glyph-name="plus" unicode="+" horiz-adv-x="1720" 
d="M727 1331q0 71 35.5 116t97.5 45t97.5 -45t35.5 -116v-449h446q73 0 117 -35t44 -95t-44 -95t-117 -35h-446v-450q0 -70 -35.5 -115t-97.5 -45t-97.5 45t-35.5 115v450h-446q-36 0 -66 11t-51 29t-32.5 41.5t-11.5 48.5q0 60 44 95t117 35h446v449z" />
    <glyph glyph-name="comma" unicode="," horiz-adv-x="811" 
d="M176 199q0 44 17 82.5t46 67.5t67.5 46t82.5 17q64 0 110.5 -24t77.5 -66t46 -99.5t15 -124.5q0 -120 -33.5 -212.5t-103.5 -173.5q-19 -22 -48 -47.5t-62 -47t-67.5 -35.5t-64.5 -14q-41 0 -62 21t-21 50q0 16 7.5 28.5t20 24t29.5 22.5t35 24q30 21 61 44t57.5 55
t45 78t24.5 114q-22 -16 -45 -22.5t-49 -6.5q-45 0 -79.5 16.5t-58 44t-36 63.5t-12.5 75z" />
    <glyph glyph-name="hyphen" unicode="-" horiz-adv-x="1327" 
d="M278 619q-73 0 -117 36t-44 96t44 96t117 36h772q73 0 117 -36t44 -96t-44 -96t-117 -36h-772z" />
    <glyph glyph-name="period" unicode="." horiz-adv-x="811" 
d="M189 196q0 45 17 84t46.5 68.5t68.5 46.5t84 17t84 -17t68.5 -46.5t46.5 -68.5t17 -84t-17 -84t-46.5 -68.5t-68.5 -46.5t-84 -17t-84 17t-68.5 46.5t-46.5 68.5t-17 84z" />
    <glyph glyph-name="slash" unicode="/" horiz-adv-x="1057" 
d="M754 1961q6 15 15 33t25 33.5t41 26t63 10.5q22 0 46 -8.5t44 -24.5t32.5 -39t12.5 -52q0 -20 -7.5 -42.5t-15.5 -43.5l-706 -1793l1 1q-6 -15 -15 -33t-25 -33.5t-41.5 -26t-64.5 -10.5q-22 0 -46 8.5t-43.5 24t-32 38.5t-12.5 52q0 20 7 41.5t16 44.5z" />
    <glyph glyph-name="zero" unicode="0" horiz-adv-x="1585" 
d="M430 979q0 -67 2 -147t12.5 -160t32.5 -154.5t62 -132.5t101.5 -92.5t150.5 -34.5q90 0 152 34.5t102.5 92.5t62.5 132.5t32.5 154.5t12.5 159.5t2 147.5q0 66 -3 145.5t-15 159.5t-35 155t-63.5 133t-101 93t-146.5 35q-85 0 -145 -35t-100 -93t-63 -133t-35 -155
t-15 -159.5t-3 -145.5zM90 979q0 106 6.5 222.5t30 228.5t69.5 213t123.5 177.5t193 121.5t278.5 45q164 0 279.5 -45t194 -121.5t124 -177.5t69.5 -213t30.5 -228.5t6.5 -222.5q0 -84 -3.5 -172t-14.5 -175t-32 -170t-56.5 -157t-87 -136t-124 -107t-168 -70t-218.5 -25
q-122 0 -217 25t-167.5 70t-124 107t-86.5 136t-56 157t-32 170t-14.5 175t-3.5 172z" />
    <glyph glyph-name="one" unicode="1" horiz-adv-x="1585" 
d="M729 1420q-88 -54 -183 -76.5t-199 -20.5q-48 1 -80.5 30.5t-32.5 91.5q0 56 37.5 88.5t125.5 52.5l101 22q65 14 110.5 40t77.5 58t54 67.5t41 70.5q14 26 28 49t32 40.5t41.5 28t56.5 10.5q24 0 45.5 -6.5t37.5 -23t25.5 -44.5t9.5 -71v-1648q0 -44 -8.5 -80.5t-28 -63
t-50.5 -41t-77 -14.5t-77 14.5t-50.5 41t-28 63t-8.5 80.5v1241z" />
    <glyph glyph-name="two" unicode="2" horiz-adv-x="1585" 
d="M226 0q-34 0 -62 15t-46 40.5t-24.5 57.5t1.5 67q32 135 89.5 237t131 181.5t158 141t169.5 116.5q123 80 212 141.5t146.5 120t85 122.5t27.5 149q0 69 -25 124.5t-69 94t-103 59.5t-126 21q-60 0 -113.5 -17.5t-95 -54.5t-68 -94t-33.5 -136q-3 -34 -11 -66t-27 -57
t-50.5 -40t-81.5 -15q-35 0 -66.5 9.5t-55.5 31t-38 56.5t-14 86q0 126 51 233.5t140.5 186t211.5 123t263 44.5q136 0 256.5 -39t209.5 -115t141 -186.5t52 -253.5q0 -138 -45 -243t-116.5 -186t-159.5 -142.5t-174 -112.5q-78 -48 -157.5 -97.5t-147.5 -101t-119 -104
t-72 -106.5h839q69 0 112.5 -38.5t43.5 -107.5t-43.5 -107t-112.5 -38h-1084z" />
    <glyph glyph-name="three" unicode="3" horiz-adv-x="1585" 
d="M736 1151q64 0 123 17.5t104 51t71.5 83t26.5 114.5q0 66 -22.5 116.5t-63 85t-96 52t-121.5 17.5q-56 0 -106.5 -16t-89.5 -47.5t-64 -78.5t-29 -110q-3 -34 -11 -66t-27 -57t-50.5 -40t-81.5 -15q-35 0 -66.5 9.5t-55.5 31t-38 56.5t-14 86q0 107 47.5 204.5t132 171.5
t200.5 117.5t253 43.5q138 0 255.5 -34.5t204 -105t135 -176.5t48.5 -249q0 -121 -53 -210.5t-152 -158.5q74 -27 128 -72.5t89.5 -105.5t52.5 -134t17 -159q0 -95 -25.5 -177.5t-70.5 -151t-106.5 -121.5t-133.5 -90q-42 -22 -88 -35.5t-95.5 -21t-100 -10.5t-101.5 -3
q-137 0 -251 31.5t-200.5 94.5t-143 158.5t-77.5 224.5q-8 50 6 86t39.5 59t58.5 34t62 11q49 0 80.5 -14t51 -37.5t29.5 -54.5t16 -64q10 -57 37.5 -102.5t69.5 -77.5t98 -49t124 -17q84 0 153.5 22.5t119 64t77 101.5t27.5 135q0 78 -27.5 137.5t-77 99t-117 59.5
t-147.5 20h-34q-27 0 -51.5 10.5t-42.5 28.5t-28.5 42.5t-10.5 51.5t10.5 51.5t28.5 42.5t42.5 28.5t51.5 10.5z" />
    <glyph glyph-name="four" unicode="4" horiz-adv-x="1585" 
d="M934 1405q-65 -86 -125.5 -171t-121.5 -170.5t-123.5 -173t-129.5 -177.5h500v692zM934 410h-692q-48 0 -83.5 17t-58.5 43t-34.5 58t-11.5 62q0 49 12 83.5t35 66.5l825 1156q26 36 65 53t90 17q48 0 81.5 -12.5t54.5 -35t30.5 -54.5t9.5 -70v-1081h135q35 0 65 -10.5
t51.5 -30t33.5 -48t12 -63.5t-12 -63t-33.5 -47.5t-51.5 -30t-65 -10.5h-135v-258q0 -37 -11.5 -68.5t-32.5 -54.5t-51 -36t-67 -13t-67 13t-51 36t-32 54.5t-11 68.5v258z" />
    <glyph glyph-name="five" unicode="5" horiz-adv-x="1585" 
d="M307 1840q4 24 17 45t31.5 36.5t42 24t49.5 8.5h809q33 0 61.5 -10t49 -28.5t32 -45.5t11.5 -60q0 -67 -43.5 -105t-110.5 -38h-666l-78 -401q68 43 145.5 58t157.5 15q143 0 267 -43t216 -129.5t144.5 -216t52.5 -303.5q0 -131 -45.5 -252t-137 -214.5t-229 -149.5
t-321.5 -56q-112 0 -201.5 23t-159 60.5t-119.5 85.5t-82.5 97.5t-48 97t-15.5 84.5q0 39 13 70.5t36 53.5t54.5 34t69.5 12q60 0 102 -35t62 -97q11 -34 33.5 -70t59.5 -65.5t90 -48.5t126 -19q77 0 144 25.5t117 76.5t79 128t29 180q0 84 -28 155t-79.5 122t-124 79.5
t-161.5 28.5q-52 0 -92.5 -13t-75 -33t-63.5 -42.5t-56.5 -42.5t-56 -33t-61.5 -13q-71 0 -110 27.5t-55 71.5t-14.5 99.5t12.5 112.5z" />
    <glyph glyph-name="six" unicode="6" horiz-adv-x="1585" 
d="M815 1020q-87 0 -155 -30t-114.5 -82.5t-70.5 -122.5t-24 -150q0 -81 24.5 -150.5t71.5 -119.5t114.5 -78.5t153.5 -28.5q84 0 149.5 29.5t110.5 80t68.5 118.5t23.5 145q0 80 -21.5 150.5t-65 123.5t-110 84t-155.5 31zM827 1692q-76 0 -134 -23t-101.5 -62.5
t-73.5 -92.5t-50.5 -114t-32 -127t-17.5 -130q41 38 91.5 69t107 53t117 34t122.5 12q155 0 275.5 -51t203 -140.5t125.5 -210t43 -258.5q0 -76 -14.5 -156t-47.5 -156t-87 -143.5t-131.5 -118.5t-181.5 -80.5t-238 -29.5q-157 0 -271 42t-194.5 113.5t-130.5 166.5
t-77.5 201.5t-37.5 217t-10 214.5q0 137 15 269t50 250.5t92 218.5t141.5 172.5t199 113.5t264.5 41q111 0 197.5 -19.5t150.5 -51t107.5 -73t70.5 -86t38.5 -88t11.5 -80.5q0 -78 -43.5 -124t-119.5 -46q-60 0 -102 35t-62 97q-23 69 -94 105t-172 36z" />
    <glyph glyph-name="seven" unicode="7" horiz-adv-x="1585" 
d="M256 1651q-71 0 -116 40t-45 111t45 111.5t116 40.5h1085q33 0 62.5 -12.5t51 -34t34 -51t12.5 -62.5q0 -35 -13.5 -64.5t-36.5 -51.5q-88 -87 -169 -193.5t-153.5 -227t-134.5 -252t-111 -268t-84 -276t-53 -275.5q-8 -57 -22.5 -97.5t-37.5 -66t-56 -37t-77 -11.5
q-54 0 -88.5 16.5t-54 45t-25.5 65t-3 77.5q11 125 42 256t79 262t111 260.5t136.5 251t156 234t170.5 209.5h-821z" />
    <glyph glyph-name="eight" unicode="8" horiz-adv-x="1585" 
d="M492 1446q0 -65 25.5 -114t68.5 -82t99 -49.5t118 -16.5q60 0 111 18t88 51.5t58 82t21 110.5q0 61 -21 107.5t-59 77t-90.5 46t-115.5 15.5q-57 0 -111.5 -15t-97 -45t-68.5 -76.5t-26 -109.5zM156 1458q0 86 23.5 158.5t65 131.5t99.5 103.5t127.5 74.5t147 45.5
t159.5 15.5q114 0 205.5 -20.5t163 -57.5t123.5 -87t85.5 -108.5t49.5 -124t16 -131.5q0 -130 -52 -227t-161 -162q143 -71 219 -194.5t76 -284.5q0 -151 -56 -267t-151.5 -195t-222.5 -120t-270 -41q-151 0 -282 39t-227.5 117t-152 195t-55.5 272q0 157 70.5 280.5
t212.5 194.5q-49 32 -88.5 76t-67 95t-42.5 107.5t-15 114.5zM426 582q0 -78 28 -138.5t78 -102t119 -62.5t152 -21q80 0 145.5 23.5t112.5 66.5t72.5 103.5t25.5 134.5q0 66 -28.5 123.5t-78 100t-115 67t-138.5 24.5q-77 0 -145 -22.5t-118.5 -63.5t-80 -100.5
t-29.5 -132.5z" />
    <glyph glyph-name="nine" unicode="9" horiz-adv-x="1585" 
d="M770 934q87 0 155 30t114.5 82.5t70.5 122.5t24 150q0 81 -24.5 150.5t-71.5 119.5t-114.5 78.5t-153.5 28.5q-84 0 -149.5 -29.5t-110.5 -80t-68.5 -118.5t-23.5 -145q0 -80 21.5 -150.5t65 -123.5t110 -84t155.5 -31zM758 262q76 0 134 23t101.5 62t73.5 92.5
t50.5 114.5t32 126.5t17.5 130.5q-41 -38 -91.5 -69t-107 -53t-117.5 -34t-122 -12q-155 0 -275.5 51t-203 140.5t-125.5 210t-43 258.5q0 76 14.5 156t47.5 156t87 143.5t131.5 118.5t181.5 80.5t238 29.5q157 0 271 -42t194.5 -113.5t130.5 -166.5t77.5 -201.5
t37.5 -217.5t10 -214q0 -137 -15 -269t-50 -250.5t-92 -218.5t-141.5 -172.5t-199.5 -113.5t-264 -41q-112 0 -198 19.5t-150 51t-107.5 73t-70.5 86t-38.5 88t-11.5 80.5q0 78 43.5 124t119.5 46q60 0 102 -35t62 -97q23 -69 94 -105t172 -36z" />
    <glyph glyph-name="colon" unicode=":" horiz-adv-x="811" 
d="M189 1257q0 45 17 84t46.5 68.5t68.5 46.5t84 17t84 -17t68.5 -46.5t46.5 -68.5t17 -84t-17 -84t-46.5 -68.5t-68.5 -46.5t-84 -17t-84 17t-68.5 46.5t-46.5 68.5t-17 84zM189 193q0 45 17 84t46.5 68.5t68.5 46.5t84 17t84 -17t68.5 -46.5t46.5 -68.5t17 -84t-17 -84
t-46.5 -68.5t-68.5 -46.5t-84 -17t-84 17t-68.5 46.5t-46.5 68.5t-17 84z" />
    <glyph glyph-name="semicolon" unicode=";" horiz-adv-x="811" 
d="M189 1252q0 45 17 84t46.5 68.5t68.5 46.5t84 17t84 -17t68.5 -46.5t46.5 -68.5t17 -84t-17 -84t-46.5 -68.5t-68.5 -46.5t-84 -17t-84 17t-68.5 46.5t-46.5 68.5t-17 84zM176 199q0 44 17 82.5t46 67.5t67.5 46t82.5 17q64 0 110.5 -24t77.5 -66t46 -99.5t15 -124.5
q0 -120 -33.5 -212.5t-103.5 -173.5q-19 -22 -48 -47.5t-62 -47t-67.5 -35.5t-64.5 -14q-41 0 -62 21t-21 50q0 16 7.5 28.5t20 24t29.5 22.5t35 24q30 21 61 44t57.5 55t45 78t24.5 114q-22 -16 -45 -22.5t-49 -6.5q-45 0 -79.5 16.5t-58 44t-36 63.5t-12.5 75z" />
    <glyph glyph-name="less" unicode="&#x3c;" horiz-adv-x="1827" 
d="M578 761l917 -402q78 -33 102 -78.5t6 -99.5q-14 -42 -42.5 -64.5t-64.5 -29t-77 1.5t-80 26l-1106 509q-38 18 -63.5 55t-25.5 82t25 82.5t63 54.5l1119 513q43 19 83.5 27t75 0.5t60 -32t37.5 -69.5q14 -52 -10.5 -97t-101.5 -78z" />
    <glyph glyph-name="equal" unicode="=" horiz-adv-x="1708" 
d="M279 894q-73 0 -117 36t-44 96t44 96t117 36h1151q73 0 117 -36t44 -96t-44 -96t-117 -36h-1151zM279 343q-73 0 -117 36t-44 96t44 96t117 36h1151q73 0 117 -36t44 -96t-44 -96t-117 -36h-1151z" />
    <glyph glyph-name="greater" unicode="&#x3e;" horiz-adv-x="1827" 
d="M331 1162q-77 33 -101.5 78t-10.5 97q12 45 37.5 69.5t60 32t75 -0.5t83.5 -27l1119 -513q38 -17 63 -54.5t25 -82.5t-25.5 -82t-63.5 -55l-1106 -509q-39 -18 -79.5 -26t-77 -1.5t-65 29t-42.5 64.5q-18 54 6 99.5t102 78.5l917 402z" />
    <glyph glyph-name="question" unicode="?" horiz-adv-x="1647" 
d="M225 1530q0 65 23 127.5t64.5 117.5t99 101t125.5 79.5t144.5 52t156.5 18.5q84 0 166.5 -13.5t156.5 -41.5t137 -71.5t109 -103.5t72 -136.5t26 -171.5q0 -88 -32.5 -161t-82 -133t-108.5 -109t-113 -88q-38 -27 -70.5 -50t-58 -50.5t-42.5 -64t-23 -90.5
q-3 -25 -13.5 -49t-30 -42.5t-48.5 -29.5t-69 -11q-39 0 -67.5 15t-47.5 39t-28.5 53.5t-9.5 59.5q0 70 21.5 126.5t56.5 103t79 85.5t89 75q43 34 85.5 69t76.5 73.5t54.5 82t20.5 96.5q0 61 -20.5 109.5t-58.5 82t-91 51t-119 17.5q-74 0 -123 -19t-81 -49.5t-52.5 -69
t-38.5 -77.5q-13 -30 -27 -57.5t-34 -48.5t-48.5 -34t-69.5 -13q-31 0 -59.5 9.5t-50 28.5t-34 47t-12.5 65zM623 200q0 43 16 81t43 66.5t64 45t79 16.5q41 0 78 -16.5t64.5 -45t43.5 -66.5t16 -81t-16 -81t-43.5 -66.5t-64.5 -45t-78 -16.5q-42 0 -79 16.5t-64 45
t-43 66.5t-16 81z" />
    <glyph glyph-name="at" unicode="@" horiz-adv-x="2327" 
d="M895 943q0 -65 18 -114.5t49.5 -84t75 -52t94.5 -17.5q63 0 115 25.5t89.5 70.5t58.5 106t21 132q0 58 -15 105.5t-44 81.5t-71.5 53t-98.5 19q-64 0 -117.5 -26.5t-92.5 -71t-60.5 -103.5t-21.5 -124zM1621 846l1 2q-2 -10 -5 -24.5t-5.5 -29.5t-4.5 -28.5t-2 -22.5
q0 -35 15.5 -55.5t55.5 -20.5t87 29.5t87.5 86.5t68 140.5t27.5 191.5q0 173 -56.5 306t-157 223t-238 136t-299.5 46q-108 0 -207 -29.5t-185 -82.5t-156.5 -128t-120.5 -166t-77.5 -196t-27.5 -218q0 -190 61.5 -340.5t168.5 -255.5t253 -161t315 -56q106 0 185 14.5
t138 35.5t101 45.5t74 45.5q27 17 48 29.5t39 12.5q16 0 31.5 -7t26.5 -19t18 -28t7 -34q0 -35 -31 -71.5t-83 -70t-120 -63t-142 -52t-149.5 -35t-142.5 -12.5q-144 0 -278 34t-250.5 98t-213 155t-165 204.5t-106.5 247.5t-38 283q0 147 37 280.5t104.5 247.5t162 207
t209.5 158t247 100.5t275 35.5q127 0 247 -24.5t226.5 -73.5t195 -123.5t152.5 -175.5t99.5 -228t35.5 -281q0 -137 -37 -243t-96.5 -185.5t-134.5 -133.5t-151 -87.5t-147 -48.5t-121 -15q-140 0 -144 142q-50 -58 -123.5 -89.5t-158.5 -31.5q-83 0 -157 36t-129 99
t-87 148.5t-32 184.5q0 139 41 253.5t110 196.5t158.5 127t187.5 45q119 0 206.5 -51.5t141.5 -151.5l19 97q5 27 17.5 43.5t28 25.5t33 12t32.5 3q36 0 57 -12.5t31 -33t10.5 -47.5t-4.5 -55z" />
    <glyph glyph-name="A" unicode="A" horiz-adv-x="1929" 
d="M723 1869q28 73 74.5 102.5t115.5 29.5h106q32 0 62 -5t56.5 -19.5t48 -41.5t37.5 -70l569 -1567q6 -16 13.5 -36.5t13.5 -42t10.5 -42t4.5 -35.5q0 -33 -13.5 -61t-37 -49t-54.5 -33t-66 -12q-61 0 -103 22t-62 73l-151 428h-781l-155 -429q-18 -51 -57.5 -73
t-105.5 -22q-37 0 -68 11t-53 31t-34.5 48.5t-12.5 64.5q0 16 4 36.5t10.5 42t13.5 42t13 35.5zM963 1650l-325 -911h637z" />
    <glyph glyph-name="B" unicode="B" horiz-adv-x="1929" 
d="M1012 1176q101 0 173.5 16t118.5 49t67.5 82t21.5 115q0 65 -12.5 110t-35.5 73.5t-56.5 43.5t-76 22t-93 8t-107.5 1h-467v-520h467zM369 0q-36 0 -68 14t-56 38t-38 56t-14 68v1647q0 36 14 68t38 56t56 38t68 14h630q90 0 180 -7t172.5 -26.5t153.5 -54.5t123.5 -91.5
t82.5 -137.5t30 -191q0 -146 -52.5 -250.5t-160.5 -175.5q72 -31 127.5 -78.5t94 -108t58 -132.5t19.5 -152q0 -74 -19 -146.5t-56 -138.5t-92 -122.5t-127 -98t-160.5 -65t-192.5 -23.5h-811zM1143 299q80 0 142 21t104 60.5t64 96.5t22 129q0 80 -33.5 131.5t-88.5 81.5
t-124 41.5t-139 11.5h-545v-573h598z" />
    <glyph glyph-name="C" unicode="C" horiz-adv-x="1975" 
d="M103 1001q0 142 28.5 275t84.5 249.5t139 212.5t191.5 165.5t242 107.5t291.5 38q126 0 233.5 -24t194.5 -64t153 -92t110.5 -107.5t67.5 -111t23 -101.5q0 -81 -39.5 -127t-122.5 -46q-38 0 -66 11.5t-51 30.5t-42.5 44.5t-38.5 52.5h1q-30 42 -63.5 84t-81.5 75.5
t-115 55t-163 21.5q-78 0 -154 -19.5t-144.5 -59t-126.5 -100.5t-100 -143.5t-66 -187.5t-24 -234q0 -161 38 -298.5t116 -238.5t196.5 -158t280.5 -57q85 0 149 23.5t112.5 60.5t86 82t70.5 89q18 24 38.5 48.5t42 44.5t44 33t46.5 15q36 2 66.5 -8t53.5 -29.5t38 -46.5
t19 -59q9 -71 -15 -139t-74.5 -129t-122.5 -113t-160.5 -90t-188.5 -59t-205 -21q-229 0 -413 66t-313 196.5t-198 326t-69 455.5z" />
    <glyph glyph-name="D" unicode="D" horiz-adv-x="1982" 
d="M922 299q42 0 104.5 6.5t132.5 30.5t139 70t125 125t90.5 195.5t34.5 281.5q0 164 -33.5 292t-107 216t-191 134t-286.5 46h-385v-1397h377zM369 0q-36 0 -68 14t-56 38t-38 56t-14 68v1647q0 36 14 68t38 56t56 38t68 14h532q240 0 425 -58.5t312 -177t192.5 -296.5
t65.5 -418q0 -252 -57.5 -447.5t-179 -329t-309.5 -203t-449 -69.5h-532z" />
    <glyph glyph-name="E" unicode="E" horiz-adv-x="1732" 
d="M545 872v-573h967q31 0 58.5 -12t47.5 -32t32 -47.5t12 -58.5t-12 -58t-32 -47.5t-47.5 -32t-58.5 -11.5h-1143q-36 0 -68 14t-56 38t-38 56t-14 68v1647q0 36 14 68t38 56t56 38t68 14h1143q31 0 58.5 -12t47.5 -33t32 -48.5t12 -58.5t-12 -58.5t-32 -48t-47.5 -32.5
t-58.5 -12h-967v-520h886q31 0 58.5 -12t47.5 -33t32 -48.5t12 -58.5t-12 -58.5t-32 -48.5t-47.5 -33t-58.5 -12h-886z" />
    <glyph glyph-name="F" unicode="F" horiz-adv-x="1618" 
d="M545 172q0 -37 -9.5 -71.5t-30.5 -61.5t-54.5 -43t-81.5 -16t-81.5 16t-54.5 43t-30.5 61.5t-9.5 71.5v1651q0 36 14 68t38 56t56 38t68 14h1060q31 0 58.5 -12t47.5 -33t32 -48.5t12 -58.5t-12 -58.5t-32 -48t-47.5 -32.5t-58.5 -12h-884v-520h753q31 0 58.5 -12
t47.5 -33t32 -48.5t12 -58.5t-12 -58.5t-32 -48.5t-47.5 -33t-58.5 -12h-753v-700z" />
    <glyph glyph-name="G" unicode="G" horiz-adv-x="2134" 
d="M1987 118q0 -29 -9 -55.5t-27 -46t-43.5 -31t-58.5 -11.5q-48 0 -81 17.5t-53 47.5t-29 70.5t-9 87.5q-72 -74 -148.5 -119.5t-153 -71t-152 -34.5t-146.5 -9q-154 0 -287 37t-242.5 104t-194 159.5t-142 203.5t-87.5 237t-30 259q0 144 27.5 280.5t82 256.5t136.5 220
t191 172t245.5 112t300.5 40q156 0 279 -30.5t216.5 -79.5t159.5 -110.5t108.5 -125t63.5 -122.5t24 -102q4 -50 -12.5 -82.5t-43.5 -51t-61 -26t-65 -7.5q-55 0 -97.5 30.5t-63.5 75.5q-13 29 -29.5 65t-41.5 73t-60.5 71.5t-87.5 62t-123 44t-166 16.5q-111 0 -201.5 -30
t-160.5 -83t-121 -125.5t-83.5 -157.5t-48.5 -179.5t-16 -190.5q0 -94 18.5 -184t54.5 -170.5t89.5 -147.5t123.5 -116t156.5 -76t188.5 -27q130 0 236 42t181 114t117.5 169t47.5 208h-496q-32 0 -59.5 12t-47.5 32t-32 47.5t-12 59.5q0 31 12 59t32 48.5t47.5 32.5
t59.5 12h671q31 0 59 -12t48.5 -32.5t32.5 -48.5t12 -59z" />
    <glyph glyph-name="H" unicode="H" horiz-adv-x="2032" 
d="M1839 173q0 -37 -9.5 -71.5t-30.5 -61.5t-54.5 -43t-81.5 -16t-81.5 16t-54.5 43t-30.5 61.5t-9.5 71.5v701h-942v-701q0 -37 -9.5 -71.5t-30.5 -61.5t-54.5 -43t-81.5 -16t-81.5 16t-54.5 43t-30.5 61.5t-9.5 71.5v1654q0 37 9.5 71.5t30.5 61.5t54.5 43t81.5 16
t81.5 -16t54.5 -43t30.5 -61.5t9.5 -71.5v-653h942v653q0 37 9.5 71.5t30.5 61.5t54.5 43t81.5 16t81.5 -16t54.5 -43t30.5 -61.5t9.5 -71.5v-1654z" />
    <glyph glyph-name="I" unicode="I" horiz-adv-x="795" 
d="M573 173q0 -37 -9.5 -71.5t-30.5 -61.5t-54.5 -43t-81.5 -16t-81.5 16t-54.5 43t-30.5 61.5t-9.5 71.5v1653q0 37 9.5 71.5t30.5 61.5t54.5 43t81.5 16t81.5 -16t54.5 -43t30.5 -61.5t9.5 -71.5v-1653z" />
    <glyph glyph-name="J" unicode="J" horiz-adv-x="1466" 
d="M922 1826q0 37 9.5 71.5t30.5 61.5t54.5 43t81.5 16t81.5 -16t54.5 -43t30.5 -61.5t9.5 -71.5v-1256q0 -143 -41 -256.5t-121.5 -192.5t-198 -121t-270.5 -42q-124 0 -217 26.5t-160 71t-111.5 102t-70.5 119t-36.5 123t-10.5 113.5q0 105 43.5 167t133.5 62
q47 0 81 -15.5t56 -44t32.5 -68t10.5 -88.5q0 -57 14.5 -106t45.5 -85t79.5 -56.5t116.5 -20.5q63 0 113.5 16t85.5 53.5t54 98.5t19 150v1250z" />
    <glyph glyph-name="K" unicode="K" horiz-adv-x="1858" 
d="M545 172q0 -37 -9.5 -71.5t-30.5 -61.5t-54.5 -43t-81.5 -16t-81.5 16t-54.5 43t-30.5 61.5t-9.5 71.5v1661q0 39 13 73t36 59t55.5 39.5t71.5 14.5t71.5 -14.5t55.5 -39.5t36 -59t13 -73v-727l872 867q24 23 54 34t61 11t59.5 -12t51.5 -36t34 -54t10 -61t-13.5 -60.5
t-36.5 -52.5l-584 -558l683 -931q21 -29 28.5 -62.5t2 -66t-23 -62.5t-46.5 -51q-28 -21 -61 -28t-65 -2t-61.5 22.5t-50.5 46.5l-648 892q-71 -65 -133 -129t-133 -129v-512z" />
    <glyph glyph-name="L" unicode="L" horiz-adv-x="1552" 
d="M193 1833q0 36 12 70t35 59.5t55.5 41t73.5 15.5q39 0 71.5 -15.5t56 -41t36 -59.5t12.5 -70v-1534h848q31 0 58.5 -12t47.5 -32t32 -47.5t12 -58.5t-12 -58t-32 -47.5t-47.5 -32t-58.5 -11.5h-1024q-36 0 -68 14t-56 38t-38 56t-14 68v1657z" />
    <glyph glyph-name="M" unicode="M" horiz-adv-x="2433" 
d="M192 1810q0 60 19 98t50.5 59.5t71 29.5t80.5 8h87q48 0 84 -10.5t63.5 -33t47.5 -58.5t37 -86l488 -1370l478 1370q16 52 36 87.5t47 58t63.5 32.5t84.5 10h91q41 0 81 -8t71 -29.5t50 -59.5t19 -98v-1646q0 -37 -9.5 -71.5t-31 -61.5t-55 -43t-81.5 -16t-81.5 16
t-54.5 43t-30.5 61.5t-9.5 71.5v1289l-502 -1370q-20 -57 -63.5 -84t-106.5 -27q-62 0 -105.5 26t-62.5 85l-503 1370v-1289q0 -37 -9.5 -71.5t-30.5 -61.5t-54.5 -43t-81.5 -16t-81.5 16t-55 43t-31 61.5t-9.5 71.5v1646z" />
    <glyph glyph-name="N" unicode="N" horiz-adv-x="2040" 
d="M193 1781q0 129 58.5 186t181.5 57q59 0 107 -27.5t83 -82.5l872 -1376v1293q0 97 46 145t129 48t130 -48t47 -145v-1602q0 -122 -52.5 -188.5t-171.5 -66.5q-47 0 -82.5 11.5t-63.5 31.5t-49.5 46t-39.5 56l-843 1338v-1294q0 -96 -46 -142.5t-129 -46.5t-130 46.5
t-47 142.5v1618z" />
    <glyph glyph-name="O" unicode="O" horiz-adv-x="2138" 
d="M434 999q0 -92 15.5 -182.5t48 -173t83 -153t120.5 -122t160.5 -81t203.5 -29.5q115 0 207 29.5t163 81t122 122t83.5 153t48 173t15.5 182.5t-15.5 183.5t-48 174t-83.5 153.5t-122 123.5t-163 82t-207 29.5q-113 0 -203.5 -29.5t-160.5 -82t-120.5 -123.5t-83 -153.5
t-48 -174t-15.5 -183.5zM82 999q0 137 27 268t81.5 247t136 213.5t190.5 167.5t246 109.5t302 39.5q166 0 304 -39.5t248 -109.5t192.5 -167.5t137 -213.5t82 -247t27.5 -268t-27.5 -267t-82 -245t-137 -211.5t-192.5 -166t-248 -108t-304 -38.5q-165 0 -302 38.5t-246 108
t-190.5 166t-136 211.5t-81.5 245t-27 267z" />
    <glyph glyph-name="P" unicode="P" horiz-adv-x="1827" 
d="M999 1085q203 -3 298.5 76.5t95.5 227.5q0 150 -95.5 228.5t-298.5 78.5h-454v-611h454zM193 1823q0 36 14 68t38 56t56 38t68 14h721q163 0 285 -40.5t203.5 -118.5t122 -191.5t40.5 -259.5q0 -143 -40.5 -255.5t-122 -190.5t-203.5 -118.5t-285 -38.5h-545v-620
q0 -36 -12.5 -70t-35.5 -59.5t-55.5 -41t-72.5 -15.5q-41 0 -73.5 15.5t-55 41t-35 59.5t-12.5 70v1657z" />
    <glyph glyph-name="Q" unicode="Q" horiz-adv-x="2138" 
d="M82 999q0 137 27 268t81.5 247t136 213.5t190.5 167.5t246 109.5t302 39.5q166 0 304 -39.5t248 -109.5t192.5 -167.5t137 -213.5t82 -247t27.5 -268q0 -106 -16.5 -207.5t-49 -195.5t-81.5 -179t-114 -157l187 -156q24 -20 37 -45.5t15 -53t-7 -55.5t-29 -53t-45 -40
t-52 -19.5t-54.5 3t-52.5 27.5l-244 204q-102 -52 -222 -80.5t-263 -28.5q-165 0 -302 38.5t-246 108t-190.5 166t-136 211.5t-81.5 245t-27 267zM434 999q0 -92 15.5 -182.5t48 -173t83 -153t120.5 -122t160.5 -81t203.5 -29.5q63 0 117.5 8.5t104.5 25.5l-104 87
q-24 19 -37 44.5t-14.5 53.5t7.5 56.5t29 53.5q19 25 44.5 40t52.5 19t55 -3t52 -27l171 -144q42 53 72.5 115t50 129.5t29 139t9.5 143.5q0 92 -15.5 183.5t-48 174t-83.5 153.5t-122 123.5t-163 82t-207 29.5q-113 0 -203.5 -29.5t-160.5 -82t-120.5 -123.5t-83 -153.5
t-48 -174t-15.5 -183.5z" />
    <glyph glyph-name="R" unicode="R" horiz-adv-x="1929" 
d="M1493 956q69 -9 119 -43.5t83 -92.5t50.5 -138t20.5 -180q2 -63 12 -112t20.5 -89t19 -72.5t8.5 -63.5q0 -39 -12.5 -73t-34.5 -59t-52.5 -39t-66.5 -14q-54 0 -92 15t-63.5 39.5t-40 55.5t-22 62t-9.5 59.5t-2 48.5q0 129 -13.5 232.5t-47.5 176t-92.5 111.5t-148.5 39
h-584v-653q0 -36 -12 -70t-35 -59.5t-55.5 -41t-73.5 -15.5t-74 15.5t-55.5 41t-34.5 59.5t-12 70v1657q0 36 14 68t38 56t56 38t68 14h786q154 0 274 -37t203 -106.5t126.5 -171t43.5 -230.5q0 -78 -16.5 -151t-53.5 -137t-95.5 -117.5t-143.5 -92.5zM1036 1114
q80 0 154.5 13.5t132.5 47.5t92.5 93t34.5 149q0 63 -18 114.5t-56 88t-97 56.5t-140 20h-594v-582h491z" />
    <glyph glyph-name="S" unicode="S" horiz-adv-x="1827" 
d="M1213 1112q144 -38 241 -97t155 -133.5t82 -162t21 -182.5q-4 -132 -63 -241.5t-167 -187t-262 -118t-347 -34.5q-139 4 -249 31.5t-195 71t-146.5 101t-102.5 122.5t-63 133.5t-29 135.5q-3 35 6.5 67t29.5 57t48 40t62 17q33 1 63.5 -7t56 -26t44 -47t26.5 -69
q13 -69 48.5 -128.5t94 -103t139.5 -69.5t185 -29q94 -3 177 14.5t144.5 52t98 84t38.5 111.5q3 103 -62 171t-193 106q-125 36 -250.5 74t-250.5 76q-138 43 -225.5 101t-137.5 125.5t-68 142t-16 151.5q3 108 33 192.5t80.5 148t119 108t148 72.5t167.5 42t179 17
q76 2 156.5 -9t158 -36.5t149 -66.5t131 -98t103 -130.5t65.5 -165.5q9 -35 1 -67t-29 -57t-52.5 -39.5t-70.5 -14.5q-76 -1 -116 32.5t-59 89.5q-24 71 -60 123t-88.5 85t-123 48t-163.5 12q-177 -5 -272.5 -76t-99.5 -194q-2 -63 29.5 -106.5t81.5 -73.5t110.5 -50
t117.5 -35z" />
    <glyph glyph-name="T" unicode="T" horiz-adv-x="1626" 
d="M983 1696v-1525q0 -37 -9.5 -71.5t-30.5 -61.5t-54 -43t-81 -16t-81.5 16t-55 43t-31 61.5t-9.5 71.5v1525h-454q-32 0 -61 10.5t-51 30t-35.5 47.5t-13.5 63q0 34 13.5 62.5t35.5 48t51 30.5t61 11h1274q31 0 60.5 -10.5t51.5 -30.5t35.5 -48t13.5 -63q0 -36 -13.5 -64
t-35.5 -47.5t-51.5 -29.5t-60.5 -10h-468z" />
    <glyph glyph-name="U" unicode="U" horiz-adv-x="2056" 
d="M1864 733q0 -194 -54.5 -339t-159 -241.5t-257 -145t-349.5 -48.5q-203 0 -361 45.5t-267 140.5t-166 241t-57 347v1093q0 37 9.5 71.5t30.5 61.5t54.5 43t81.5 16t81.5 -16t54.5 -43t30.5 -61.5t9.5 -71.5v-1093q0 -239 125.5 -357t373.5 -118q234 0 350.5 118
t116.5 357v1093q0 37 9.5 71.5t30.5 61.5t54.5 43t81.5 16t81.5 -16t54.5 -43t31 -61.5t10 -71.5v-1093z" />
    <glyph glyph-name="V" unicode="V" horiz-adv-x="1740" 
d="M1096 111q-15 -41 -36.5 -67t-50.5 -40.5t-65.5 -20t-81.5 -5.5t-81.5 5.5t-65.5 20t-50.5 40.5t-35.5 67l-572 1652q-12 36 -15 73.5t8.5 71t38.5 60t74 40.5q51 15 90 10.5t67.5 -23t47.5 -48.5t31 -66l473 -1447l479 1453q11 34 30 63.5t47 47.5t66 22.5t86 -10.5
q45 -14 72 -38.5t38 -55.5t8 -67.5t-17 -75.5z" />
    <glyph glyph-name="W" unicode="W" horiz-adv-x="2589" 
d="M2095 160q-14 -50 -32 -84.5t-44.5 -56t-64 -31t-89.5 -9.5q-54 0 -91 11.5t-63 35t-42.5 58.5t-29.5 83l-357 1332l-363 -1343q-13 -49 -30.5 -82.5t-44 -54.5t-63 -30.5t-87.5 -9.5q-53 0 -89.5 11.5t-61.5 34t-41.5 57t-28.5 81.5l-408 1583q-8 31 -12.5 57t-4.5 52
q0 42 15.5 72.5t40.5 50.5t57 29.5t64 9.5q70 0 111 -34.5t61 -115.5l320 -1326l346 1309q10 37 24 68t38.5 53t62.5 34t96 12q66 0 107.5 -10.5t67.5 -31.5t40 -52.5t25 -73.5l348 -1317l329 1339q20 79 59.5 112.5t108.5 33.5q31 0 62 -9.5t55.5 -29t39.5 -49t15 -70.5
q0 -26 -5 -51t-13 -55z" />
    <glyph glyph-name="X" unicode="X" horiz-adv-x="1613" 
d="M808 733l-448 -669q-9 -13 -21 -28t-29.5 -27.5t-40.5 -21t-54 -8.5q-38 0 -70 12.5t-55.5 35t-37 52t-13.5 64.5q0 29 10.5 55.5t26.5 50.5l519 783l-475 710q-17 25 -27.5 52t-10.5 58q0 36 14 67t38.5 54t58 36t72.5 13q32 0 56 -8.5t42 -21.5t30.5 -28.5t21.5 -29.5
l397 -636l420 641q8 13 19.5 27.5t28 27t39.5 20.5t53 8q37 0 68.5 -12.5t54.5 -34t36.5 -51t13.5 -62.5q0 -29 -10 -55t-26 -50l-492 -729l519 -766q17 -26 28 -53t11 -58q0 -36 -14 -67.5t-39 -54.5t-58.5 -36.5t-72.5 -13.5q-32 0 -56.5 9t-42.5 22t-31 28.5t-22 29.5z
" />
    <glyph glyph-name="Y" unicode="Y" horiz-adv-x="1746" 
d="M1047 171q0 -37 -10 -71.5t-31 -61.5t-54.5 -43t-81.5 -16t-82 16t-55.5 43t-31.5 61.5t-10 71.5v632l-613 952q-28 45 -29.5 92.5t19 85.5t62 62.5t98.5 24.5q33 0 58 -6.5t45 -20t36 -33.5t33 -47l479 -774l475 778q16 25 32 44.5t35 32.5t43.5 19.5t56.5 6.5
q26 0 56.5 -8t57 -27t44.5 -50t18 -77q0 -24 -8.5 -47.5t-22.5 -45.5l-619 -958v-636z" />
    <glyph glyph-name="Z" unicode="Z" horiz-adv-x="1927" 
d="M1312 1694h-908q-39 0 -73.5 10t-60 29.5t-40.5 48t-15 66.5q0 37 15 65.5t40.5 47.5t60 29t73.5 10h1218q34 0 64 -8.5t52.5 -28t35.5 -52t13 -80.5q0 -36 -13.5 -73t-39.5 -68l-1133 -1384h1029q39 0 74 -10t60.5 -29.5t40.5 -48.5t15 -66t-15 -65.5t-40.5 -47.5
t-60.5 -29t-74 -10h-1284q-51 0 -91.5 9.5t-68 31t-42 57.5t-14.5 89q0 45 18.5 80.5t45.5 69.5z" />
    <glyph glyph-name="bracketleft" unicode="[" horiz-adv-x="770" 
d="M496 -295h127q32 0 59 -7t46.5 -22t30 -38.5t10.5 -57.5t-10.5 -58t-30 -39t-46.5 -21.5t-59 -6.5h-244q-39 0 -75.5 8.5t-65 32t-45.5 64.5t-17 107v2169q0 66 17 107t45.5 64.5t65 32t75.5 8.5h244q32 0 59 -6.5t46.5 -21.5t30 -39t10.5 -58t-10.5 -58t-30 -39
t-46.5 -21.5t-59 -6.5h-127v-2093z" />
    <glyph glyph-name="backslash" unicode="\" horiz-adv-x="1057" 
d="M1010 168q9 -23 16 -44.5t7 -41.5q0 -29 -12.5 -52t-32 -38.5t-43.5 -24t-46 -8.5q-39 0 -64.5 10.5t-41.5 26t-25 33.5t-15 33l1 -1l-706 1793q-8 21 -15.5 43.5t-7.5 42.5q0 29 12.5 52t32.5 39t43.5 24.5t46.5 8.5q38 0 63 -10.5t41 -26t25 -33.5t15 -33z" />
    <glyph glyph-name="bracketright" unicode="]" horiz-adv-x="770" 
d="M274 1798h-127q-65 0 -105.5 28.5t-40.5 96.5t40.5 96.5t105.5 28.5h244q39 0 75.5 -8.5t65 -32t45.5 -64.5t17 -107v-2169q0 -66 -17 -107t-45.5 -64.5t-65 -32t-75.5 -8.5h-244q-65 0 -105.5 28.5t-40.5 96.5q0 67 40.5 96t105.5 29h127v2093z" />
    <glyph glyph-name="asciicircum" unicode="^" horiz-adv-x="1708" 
d="M858 1656l-391 -714q-16 -29 -33 -48t-37 -30t-43 -15t-51 -4q-52 0 -79.5 15.5t-35.5 41t0 58.5t28 68l481 872q18 32 36 52.5t38 32.5t41.5 16.5t45.5 4.5t45.5 -4.5t41.5 -16.5t38 -32.5t36 -52.5l479 -873q22 -39 29.5 -72.5t-1.5 -58t-35.5 -38.5t-74.5 -14
q-28 0 -52 4t-45 15t-38.5 30t-33.5 48z" />
    <glyph glyph-name="underscore" unicode="_" horiz-adv-x="1446" 
d="M117 -421q-24 0 -43.5 9.5t-34 25.5t-22 37.5t-7.5 45.5t7.5 45.5t22 37.5t34 25t43.5 9h1210q24 0 43.5 -9t34 -25t22 -37.5t7.5 -45.5t-7.5 -45.5t-22 -37.5t-34 -25.5t-43.5 -9.5h-1210z" />
    <glyph glyph-name="grave" unicode="`" horiz-adv-x="885" 
d="M649 1771q33 -44 40 -81t-4 -64t-37.5 -43t-59.5 -17t-69.5 14.5t-68.5 50.5l-199 219q-25 27 -40 57t-18.5 59t6.5 56.5t35 49.5q39 34 75.5 35.5t68.5 -16t59.5 -48t49.5 -58.5z" />
    <glyph glyph-name="a" unicode="a" horiz-adv-x="1532" 
d="M1373 348q0 -44 6.5 -75t16 -53t21.5 -37.5t24 -28.5q12 -14 22 -27.5t12 -33.5q3 -32 -9.5 -56t-34.5 -40.5t-51 -25.5t-59 -10q-128 -5 -195 54t-72 171q-67 -80 -134.5 -125t-137 -67t-141 -27.5t-145.5 -5.5q-78 0 -153 28t-133.5 80t-94 126.5t-35.5 168.5
q0 121 43 202.5t115 134t166.5 80.5t198.5 43l239 28q39 5 74.5 14t62.5 28.5t42.5 52.5t15.5 87q0 52 -22.5 87t-61 55.5t-88.5 29t-104 8.5q-77 0 -128.5 -15.5t-86.5 -41.5t-59.5 -61t-48.5 -74q-23 -39 -56 -55t-75 -16q-32 0 -57.5 11t-43.5 30t-28 44t-10 52
q0 44 16.5 91.5t49.5 92t82.5 84.5t116 70.5t149.5 48t182 17.5q135 0 247 -23.5t192.5 -73t125 -126t44.5 -183.5v-738zM1037 709q-26 -18 -54.5 -30t-56 -20t-51.5 -12.5l-40 -7.5l-142 -21q-66 -11 -117 -28.5t-85.5 -45t-52 -66.5t-17.5 -93q0 -41 17 -77.5t48.5 -63.5
t76 -43t100.5 -16q86 0 155.5 28t118 74.5t74.5 106t26 123.5v192z" />
    <glyph glyph-name="b" unicode="b" horiz-adv-x="1688" 
d="M1253 750q0 86 -21.5 169t-68.5 148t-120.5 105t-178.5 40q-106 0 -179.5 -42t-119 -109.5t-66 -152.5t-20.5 -171q0 -92 21.5 -177.5t69 -151.5t124 -106t187.5 -40q106 0 177 41.5t114.5 110t62 156.5t18.5 180zM156 1841q0 39 12 71.5t34.5 56.5t53 37t68.5 13
q37 0 68 -13t53 -37t34.5 -56.5t12.5 -71.5v-514q45 55 96.5 90.5t105.5 55t108.5 27t106.5 7.5q118 0 215.5 -29.5t174.5 -82t135 -124.5t96 -157.5t57 -181.5t19 -195q0 -160 -42 -300t-127.5 -244.5t-214.5 -165t-304 -60.5q-57 0 -113 7.5t-109.5 28.5t-104.5 58.5
t-99 96.5q0 -37 -11.5 -69.5t-33 -56.5t-53 -38t-70.5 -14t-70 14t-52.5 38t-33.5 56.5t-12 69.5v1683z" />
    <glyph glyph-name="c" unicode="c" horiz-adv-x="1487" 
d="M77 695q0 174 47.5 319.5t140.5 250.5t231.5 163t320.5 58q123 0 228 -32t182 -83.5t121 -118t44 -135.5q0 -39 -14 -68.5t-38 -49t-55 -29.5t-65 -10q-27 0 -47 8t-36.5 21t-29 30t-24.5 35q-18 26 -39 52.5t-52.5 48t-76 35t-109.5 13.5q-42 0 -87 -10.5t-88 -34
t-81.5 -62t-67.5 -95t-46 -132t-17 -174.5q0 -103 27 -185.5t77 -141t121 -90t159 -31.5q59 0 101.5 14t74 36.5t54 50.5t41.5 55q15 21 30.5 41t34.5 35.5t43 25t56 9.5q34 0 63 -12t50 -31.5t32.5 -44.5t11.5 -52q0 -64 -37.5 -136t-113 -132.5t-189 -100.5t-265.5 -40
q-182 0 -316 54.5t-222 152t-131.5 231.5t-43.5 292z" />
    <glyph glyph-name="d" unicode="d" horiz-adv-x="1688" 
d="M435 750q0 -92 18.5 -180t62 -156.5t114.5 -110t177 -41.5q111 0 187.5 40t124 106t69 151.5t21.5 177.5q0 86 -20.5 171t-66.5 152.5t-119 109.5t-179 42q-105 0 -178.5 -40t-120.5 -105t-68.5 -148t-21.5 -169zM1532 158q0 -37 -12 -69.5t-33.5 -56.5t-52.5 -38
t-70 -14t-70.5 14t-53 38t-33 56.5t-11.5 69.5q-49 -59 -100.5 -96.5t-104.5 -58.5t-108.5 -28.5t-112.5 -7.5q-175 0 -304 60.5t-214.5 165t-127.5 244.5t-42 300q0 99 19 195t57 181.5t96 157.5t135 124.5t174.5 82t215.5 29.5q57 0 113 -8.5t109 -29t102.5 -55.5
t92.5 -87v514q0 39 12.5 71.5t34.5 56.5t53 37t68 13t68 -13t53.5 -37t34.5 -56.5t12 -71.5v-1683z" />
    <glyph glyph-name="e" unicode="e" horiz-adv-x="1532" 
d="M791 1216q-82 0 -145 -32t-108 -83t-72.5 -114.5t-36.5 -125.5h713q-9 66 -33 129.5t-66 114t-104.5 81t-147.5 30.5zM423 624q4 -75 31 -142t76 -116.5t120.5 -78.5t166.5 -29q63 0 108.5 13.5t80 33t61 43t51.5 43t52.5 33t64.5 13.5q33 0 60 -12t46.5 -31.5
t30.5 -44.5t12 -51q3 -66 -21.5 -116.5t-67.5 -87.5t-101 -62.5t-122.5 -40.5t-132 -21.5t-128.5 -6.5q-192 0 -331 57.5t-228 160t-131.5 244t-42.5 308.5q0 171 53 310t148.5 237.5t228.5 152.5t293 54q163 0 291 -53.5t216 -146.5t134 -219.5t46 -272.5q0 -49 -8.5 -82
t-28 -52.5t-53 -28t-82.5 -8.5h-893z" />
    <glyph glyph-name="f" unicode="f" horiz-adv-x="938" 
d="M271 1231h-113q-68 0 -97.5 30t-29.5 81t29.5 81.5t97.5 30.5h113v213q0 88 32.5 155t87.5 112t127.5 68t152.5 23q48 0 89.5 -9.5t73 -29t49.5 -50.5t18 -73q0 -22 -7.5 -43.5t-21 -38t-31 -26.5t-37.5 -10q-8 0 -19 1t-21 3q-11 2 -21 3.5t-26 1.5q-58 0 -84 -34.5
t-26 -89.5v-176h125q73 0 111 -28t38 -84t-38 -83.5t-111 -27.5h-125v-1096q0 -85 -46 -127.5t-122 -42.5t-122 42.5t-46 127.5v1096z" />
    <glyph glyph-name="g" unicode="g" horiz-adv-x="1638" 
d="M774 270q106 0 178 42.5t116.5 111t63.5 154.5t19 172q0 81 -20.5 161t-64.5 143.5t-113.5 102.5t-167.5 39q-102 0 -171 -37t-112 -99.5t-61.5 -145t-18.5 -173.5q0 -83 17.5 -167t58.5 -151.5t108.5 -110t167.5 -42.5zM786 -340q103 0 175 31t117 89t65 140.5t20 185.5
v39q-91 -87 -192 -124t-209 -37q-172 0 -300.5 59.5t-213.5 160.5t-127.5 234.5t-42.5 282.5q0 84 13.5 173.5t45.5 174.5t84 161t129 133t180.5 90.5t238.5 33.5q57 0 111.5 -9.5t105 -31t95 -55.5t81.5 -83q0 82 40.5 125.5t119.5 43.5q82 0 121.5 -43.5t39.5 -125.5
v-1214q0 -180 -40.5 -313.5t-127 -222t-220 -132.5t-319.5 -44q-73 0 -146 12t-141 34t-127 53t-102.5 70t-68.5 83.5t-25 94.5q0 35 9.5 65t28 51.5t46.5 34t66 12.5q37 0 65.5 -17t55.5 -43t57 -56t69.5 -56t93 -43t129.5 -17z" />
    <glyph glyph-name="h" unicode="h" horiz-adv-x="1589" 
d="M1434 159q0 -39 -12 -71.5t-33.5 -56.5t-52.5 -37t-70 -13t-70.5 13t-53 37t-33 56.5t-11.5 71.5v808q0 108 -60 168.5t-178 60.5q-92 0 -161 -30t-115 -81.5t-69 -120t-23 -145.5v-661q0 -39 -12 -71.5t-33.5 -56.5t-52.5 -37t-70 -13t-70.5 13t-53 37t-33 56.5
t-11.5 71.5v1683q0 39 12 71.5t34.5 56.5t53 37t68.5 13q37 0 68 -13t53 -37t34.5 -56.5t12.5 -71.5v-516q44 43 94.5 74t103 51.5t105.5 30.5t102 10q158 0 262 -41.5t165 -114.5t85.5 -172.5t24.5 -216.5v-787z" />
    <glyph glyph-name="i" unicode="i" horiz-adv-x="705" 
d="M520 1296q0 39 -12 71.5t-33.5 56.5t-52.5 37t-70 13t-70.5 -13t-53 -37t-33 -56.5t-11.5 -71.5v-1138q0 -39 11.5 -71.5t33 -56.5t53 -37t70.5 -13t70 13t52.5 37t33.5 56.5t12 71.5v1138zM162 1814q0 39 15 74t41 61t61 41t74 15t74 -15t61 -41t41 -61t15 -74t-15 -74
t-41 -61t-61 -41t-74 -15t-74 15t-61 41t-41 61t-15 74z" />
    <glyph glyph-name="j" unicode="j" horiz-adv-x="705" 
d="M162 1814q0 39 15 74t41 61t61 41t74 15t74 -15t61 -41t41 -61t15 -74t-15 -74t-41 -61t-61 -41t-74 -15t-74 15t-61 41t-41 61t-15 74zM184 -215q0 -27 -16.5 -47.5t-44.5 -20.5h-54q-60 0 -92.5 -32t-32.5 -104q0 -83 52 -126t162 -43q106 0 176 25.5t111.5 76.5
t58 128t16.5 180v1474q0 39 -12 71.5t-33.5 56.5t-52.5 37t-70 13t-70.5 -13t-53 -37t-33 -56.5t-11.5 -71.5v-1511z" />
    <glyph glyph-name="k" unicode="k" horiz-adv-x="1456" 
d="M902 905l437 -653q8 -11 21.5 -39.5t13.5 -70.5q0 -32 -12.5 -61.5t-34 -52t-50.5 -35.5t-63 -13q-30 0 -54 7t-42.5 18.5t-31.5 25t-22 26.5l-417 623l-160 -143v-379q0 -39 -11.5 -71.5t-32.5 -56.5t-51.5 -37t-69.5 -13t-70 13t-52.5 37t-32.5 56.5t-11 71.5v1683
q0 39 11 71.5t32.5 56.5t52.5 37t70 13t69.5 -13t51.5 -37t32.5 -56.5t11.5 -71.5v-911l508 482q27 26 57.5 45t68.5 19q32 0 60 -12.5t48 -33.5t32 -48.5t13 -56.5t-10.5 -57.5t-36.5 -52.5z" />
    <glyph glyph-name="l" unicode="l" horiz-adv-x="705" 
d="M184 1841q0 39 11.5 71.5t33 56.5t53 37t70.5 13t70 -13t52.5 -37t33.5 -56.5t12 -71.5v-1683q0 -39 -12 -71.5t-33.5 -56.5t-52.5 -37t-70 -13t-70.5 13t-53 37t-33 56.5t-11.5 71.5v1683z" />
    <glyph glyph-name="m" unicode="m" horiz-adv-x="2408" 
d="M479 1299q81 99 184 141.5t230 42.5q61 0 121 -11.5t113.5 -35t98.5 -59t77 -83.5q164 189 426 189q120 0 216.5 -25.5t165 -79.5t105.5 -139t37 -203v-878q0 -39 -12 -71.5t-33.5 -56.5t-52.5 -37t-70 -13t-70.5 13t-53 37t-33 56.5t-11.5 71.5v800q0 54 -10.5 97.5
t-36 73.5t-69 46.5t-109.5 16.5q-75 0 -134.5 -21t-101 -60t-63 -95.5t-21.5 -126.5v-731q0 -39 -12 -71.5t-33.5 -56.5t-52.5 -37t-70 -13t-70.5 13t-53 37t-33 56.5t-11.5 71.5v776q0 55 -9 102.5t-33 82t-65.5 54t-105.5 19.5q-63 0 -111.5 -16t-85.5 -42t-62.5 -58.5
t-41.5 -66t-23 -65.5t-7 -55v-731q0 -39 -12 -71.5t-33.5 -56.5t-52.5 -37t-70 -13t-70.5 13t-53 37t-33 56.5t-11.5 71.5v1141q0 78 41 128t120 50q39 0 69 -13t50.5 -37t31.5 -56.5t11 -71.5z" />
    <glyph glyph-name="n" unicode="n" horiz-adv-x="1589" 
d="M1434 158q0 -39 -12 -71.5t-33.5 -56.5t-52.5 -37t-70 -13t-70.5 13t-53 37t-33 56.5t-11.5 71.5v805q0 108 -60 168.5t-178 60.5q-92 0 -161 -30t-115 -81.5t-69 -120t-23 -145.5v-657q0 -39 -12 -71.5t-33.5 -56.5t-52.5 -37t-70 -13t-70.5 13t-53 37t-33 56.5
t-11.5 71.5v1141q0 78 41 128t120 50q39 0 69 -13t50.5 -37t31.5 -56.5t11 -71.5q74 85 175.5 134.5t242.5 49.5q158 0 262 -41t165 -113.5t85.5 -172.5t24.5 -218v-780z" />
    <glyph glyph-name="o" unicode="o" horiz-adv-x="1634" 
d="M422 725q0 -115 31 -202.5t84.5 -146t126 -88.5t155.5 -30q80 0 151.5 30t125 88.5t85 146t31.5 202.5q0 112 -31.5 199.5t-85 148t-125 92t-151.5 31.5q-83 0 -155.5 -31.5t-126 -92t-84.5 -148t-31 -199.5zM78 725q0 161 46.5 300.5t139.5 242t232 161t323 58.5
q183 0 322 -58.5t232 -161t140.5 -242t47.5 -300.5q0 -160 -47.5 -298.5t-140.5 -240.5t-232 -160.5t-322 -58.5q-184 0 -323 58.5t-232 160.5t-139.5 240.5t-46.5 298.5z" />
    <glyph glyph-name="p" unicode="p" horiz-adv-x="1688" 
d="M1253 704q0 92 -18.5 180t-62 156.5t-114.5 110t-177 41.5q-111 0 -187.5 -40t-124 -106t-69 -151.5t-21.5 -177.5q0 -86 20.5 -171t66 -152.5t119 -109.5t179.5 -42q105 0 178.5 40t120.5 105t68.5 148t21.5 169zM156 1296q0 37 12 69.5t33.5 56.5t52.5 38t70 14
t70.5 -14t53 -38t33 -56.5t11.5 -69.5q48 59 99 96.5t104.5 58.5t109.5 28.5t113 7.5q175 0 304 -60.5t214.5 -165t127.5 -244.5t42 -300q0 -100 -19 -195.5t-57 -181t-96 -157.5t-135 -124.5t-174.5 -82t-215.5 -29.5q-52 0 -106.5 7.5t-108.5 27t-105.5 54.5t-96.5 91
v-514q0 -39 -12.5 -71.5t-34.5 -56.5t-53 -37t-68 -13q-38 0 -68.5 13t-53 37t-34.5 56.5t-12 71.5v1683z" />
    <glyph glyph-name="q" unicode="q" horiz-adv-x="1688" 
d="M435 704q0 -86 21.5 -169t68.5 -148t120.5 -105t178.5 -40q106 0 179 42t119 109.5t66.5 152.5t20.5 171q0 92 -21.5 177.5t-69 151.5t-124 106t-187.5 40q-106 0 -177 -41.5t-114.5 -110t-62 -156.5t-18.5 -180zM1532 -387q0 -39 -12 -71.5t-34.5 -56.5t-53.5 -37
t-68 -13t-68 13t-53 37t-34.5 56.5t-12.5 71.5v514q-45 -56 -96.5 -91t-105.5 -54.5t-108.5 -27t-106.5 -7.5q-118 0 -215.5 29.5t-174.5 82t-135 124.5t-96 157.5t-57 181t-19 195.5q0 160 42 300t127.5 244.5t214.5 165t304 60.5q57 0 114.5 -8t112.5 -29.5t105.5 -58.5
t93.5 -95q0 37 11.5 69.5t33 56.5t53 38t70.5 14t70 -14t52.5 -38t33.5 -56.5t12 -69.5v-1683z" />
    <glyph glyph-name="r" unicode="r" horiz-adv-x="987" 
d="M484 1176q17 62 41.5 118t60 98t85 66.5t117.5 24.5q43 0 79 -13t62.5 -36.5t41.5 -55t15 -68.5q0 -50 -15 -84t-40 -55t-56.5 -30.5t-64.5 -9.5h-27q-65 0 -118.5 -26.5t-91.5 -82.5t-59.5 -143t-21.5 -208v-513q0 -39 -12 -71.5t-33.5 -56.5t-52.5 -37t-70 -13
t-70.5 13t-53 37t-33 56.5t-11.5 71.5v1138q0 39 10.5 71.5t31 56.5t51 37t69.5 13t69 -13t50.5 -37t31 -56.5t10.5 -71.5v-120h5z" />
    <glyph glyph-name="s" unicode="s" horiz-adv-x="1430" 
d="M83 1046q0 80 25 144t67.5 113t100.5 84t123.5 57t136 32.5t138.5 10.5q75 0 148.5 -11t140.5 -31t124 -48.5t99 -63t65.5 -75.5t23.5 -85q0 -32 -10 -60.5t-29.5 -51t-47 -35.5t-62.5 -13q-24 0 -45 6t-39.5 16.5t-35.5 24.5t-34 29q-24 20 -53 41t-63.5 37.5t-74.5 27
t-86 10.5q-53 0 -98 -8t-77.5 -24.5t-51 -41t-18.5 -57.5q0 -43 17.5 -69t48.5 -42.5t74 -27t93 -22.5l171 -41q84 -19 171 -49.5t158.5 -80t116.5 -122t45 -175.5q0 -81 -24.5 -147.5t-67 -119.5t-100.5 -92.5t-125.5 -65.5t-141.5 -39t-148 -13q-148 0 -269 31.5
t-206.5 84t-132.5 120t-47 139.5q0 30 8.5 57.5t26 49t45 34t65.5 12.5q52 0 91.5 -24t79.5 -77q22 -29 48.5 -57t63.5 -49.5t88 -35t122 -13.5q56 0 103 10t81.5 29.5t53.5 47.5t19 64q0 45 -17 76.5t-49.5 54t-78.5 39t-104 30.5l-240 59q-84 21 -158 52t-129 77
t-87 111.5t-32 155.5z" />
    <glyph glyph-name="t" unicode="t" horiz-adv-x="918" 
d="M241 1735q0 85 46 127.5t122 42.5t122 -42.5t46 -127.5v-282h125q73 0 111 -27.5t38 -83.5t-38 -84t-111 -28h-125v-850q0 -55 26 -89.5t84 -34.5q24 0 45 3t42 3q25 0 43.5 -11t30.5 -29t17.5 -40.5t5.5 -44.5q0 -42 -18 -73t-49.5 -50.5t-73 -29t-89.5 -9.5
q-201 0 -300.5 90.5t-99.5 267.5v897h-93q-68 0 -97.5 30.5t-29.5 81.5t29.5 81t97.5 30h93v282z" />
    <glyph glyph-name="u" unicode="u" horiz-adv-x="1597" 
d="M156 1295q0 39 11.5 71.5t33.5 56.5t52.5 37t69.5 13t70.5 -13t53.5 -37t33.5 -56.5t11.5 -71.5v-807q0 -108 60 -168.5t178 -60.5q92 0 162 30t117.5 81.5t71.5 120t24 145.5v659q0 39 12 71.5t33.5 56.5t52.5 37t70 13t70.5 -13t53 -37t33 -56.5t11.5 -71.5v-1143
q0 -78 -41 -128t-120 -50q-39 0 -69 13t-50.5 37t-31.5 56.5t-11 71.5q-75 -86 -179 -135t-246 -49q-158 0 -262 41t-165 113.5t-85.5 172.5t-24.5 218v782z" />
    <glyph glyph-name="v" unicode="v" horiz-adv-x="1346" 
d="M983 1337q4 13 13 37t27.5 47t49 40t78.5 17q42 0 78 -18t59 -50.5t28.5 -76.5t-13.5 -96l-418 -1135q-12 -32 -26.5 -55.5t-38.5 -39t-59 -23t-87 -7.5q-53 0 -88.5 8t-59.5 23.5t-38.5 39.5t-26.5 56l-416 1122q-20 55 -16.5 99t24 76.5t55.5 52t78 24.5q49 6 83.5 -11
t57 -42.5t34.5 -52.5t17 -40l307 -914z" />
    <glyph glyph-name="w" unicode="w" horiz-adv-x="2079" 
d="M1476 475l234 862q4 14 13 39.5t28 49.5t50 40t78 12q59 -6 95.5 -26t53.5 -51.5t17 -71t-14 -84.5l-364 -1148q-9 -30 -23.5 -52.5t-37.5 -37.5t-57.5 -22.5t-84.5 -7.5q-51 0 -86 8t-58 23.5t-36.5 38t-21.5 51.5l-224 844l-213 -845q-8 -31 -22 -53.5t-38 -37.5
t-60 -22t-88 -7q-53 0 -88.5 7.5t-59 23t-37.5 38t-23 52.5l-357 1131q-35 110 4 175.5t153 73.5q52 4 85 -13.5t52.5 -42.5t28.5 -51.5t13 -41.5l236 -854l215 870q7 30 21 54.5t38 42t59.5 27t86.5 9.5q50 0 85.5 -9t59.5 -26t38.5 -41.5t22.5 -54.5z" />
    <glyph glyph-name="x" unicode="x" horiz-adv-x="1307" 
d="M653 512l-299 -445q-32 -48 -66 -68t-69 -20q-54 0 -95.5 22.5t-63.5 59.5t-20.5 82.5t34.5 92.5l370 526l-323 451q-15 20 -25.5 42t-10.5 47q0 27 10 57t32.5 55.5t58 42.5t85.5 17q39 0 72 -20t66 -69l244 -357l236 340q23 33 43 54.5t39.5 33.5t39.5 16t43 3
q60 -3 97.5 -30.5t52.5 -68t7.5 -87.5t-37.5 -88l-312 -419l370 -531q28 -40 34 -87t-10 -87.5t-54.5 -68t-98.5 -27.5q-23 0 -44 4t-41.5 16t-41 33.5t-43.5 55.5z" />
    <glyph glyph-name="y" unicode="y" horiz-adv-x="1381" 
d="M320 -614q-60 0 -103.5 13.5t-71.5 36.5t-41 53t-13 63q0 73 46.5 109.5t120.5 36.5h35q53 0 92 22.5t58 70.5l90 225l-470 1189q-9 23 -16 50.5t-8 44.5q-2 46 11.5 79t36 54t52 31t59.5 11q50 1 82 -15t51 -39t28.5 -47t14.5 -37l331 -919l315 925q4 13 13.5 35.5
t28 44.5t49 37.5t78.5 14.5q29 -1 57.5 -10.5t50 -30t34.5 -51.5t11 -76q-1 -17 -8 -43t-15 -48l-540 -1421q-43 -109 -89 -186.5t-100.5 -127t-120.5 -72.5t-149 -23z" />
    <glyph glyph-name="z" unicode="z" horiz-adv-x="1511" 
d="M928 1172h-610q-26 0 -52.5 8.5t-48.5 25.5t-35.5 44t-13.5 63t13.5 62.5t35 43.5t48 25.5t53.5 8.5h924q65 0 99.5 -38.5t34.5 -105.5q0 -27 -15.5 -61t-40.5 -63l-769 -905h700q27 0 52.5 -8.5t45 -25.5t31.5 -43.5t12 -62.5t-12.5 -62.5t-32.5 -43.5t-45 -25.5
t-51 -8.5h-1002q-36 0 -64.5 10.5t-47.5 28.5t-29 41t-10 48q0 44 17.5 80t39.5 62z" />
    <glyph glyph-name="braceleft" unicode="{" horiz-adv-x="967" 
d="M656 1082q0 -87 -21 -145.5t-54 -96t-72.5 -57.5t-76.5 -32q36 -12 75.5 -32.5t72.5 -58t54.5 -96t21.5 -145.5v-562q0 -54 10.5 -85.5t31 -47t50 -20t67.5 -4.5h41q21 0 41 -8.5t35 -25t24 -39.5t9 -53q0 -29 -9 -51t-24 -37t-35 -23t-41 -8h-174q-174 0 -259 84.5
t-85 267.5v612q0 77 -16 122t-41.5 68t-57.5 29.5t-65 6.5q-28 0 -48.5 9.5t-33.5 24.5t-19.5 34.5t-6.5 39.5t6.5 39t19.5 34t33.5 24t48.5 9q33 0 65 6.5t57.5 29.5t41.5 68t16 122v611q0 183 85 267.5t259 84.5h174q21 0 41 -8.5t35 -24.5t24 -37.5t9 -47.5
q0 -31 -9 -54.5t-24 -39.5t-35 -24.5t-41 -8.5h-41q-38 0 -67.5 -4.5t-50 -20t-31 -47t-10.5 -85.5v-564z" />
    <glyph glyph-name="bar" unicode="|" horiz-adv-x="655" 
d="M189 2091q0 28 11 51.5t29.5 41t44 27t54.5 9.5t54.5 -9.5t44 -27t29.5 -41t11 -51.5v-2572q0 -28 -11 -51.5t-29.5 -41t-44 -27t-54.5 -9.5t-54.5 9.5t-44 27t-29.5 41t-11 51.5v2572z" />
    <glyph glyph-name="braceright" unicode="}" horiz-adv-x="967" 
d="M311 1646q0 54 -10.5 85.5t-31 47t-50 20t-67.5 4.5h-41q-21 0 -41 8.5t-35 24.5t-24 39.5t-9 54.5q0 26 9 47.5t24 37.5t35 24.5t41 8.5h174q174 0 259 -84.5t85 -267.5v-611q0 -77 15.5 -122t41 -68t58 -29.5t65.5 -6.5q28 0 48.5 -9t33.5 -24t19.5 -34t6.5 -39
t-6.5 -39.5t-19.5 -34.5t-33.5 -24.5t-48.5 -9.5q-33 0 -65.5 -6.5t-58 -29.5t-41 -68t-15.5 -122v-612q0 -183 -85 -267.5t-259 -84.5h-174q-21 0 -41 8t-35 23t-24 37t-9 51q0 30 9 53t24 39.5t35 25t41 8.5h41q38 0 67.5 4.5t50 20t31 47t10.5 85.5v562q0 87 21.5 145.5
t54.5 96t72.5 58t75.5 32.5q-37 12 -76.5 32t-72.5 57.5t-54 96t-21 145.5v564z" />
    <glyph glyph-name="asciitilde" unicode="~" horiz-adv-x="1708" 
d="M1538 807q0 -58 -26 -118t-74.5 -109t-119 -80.5t-159.5 -31.5q-68 0 -135.5 22.5t-134.5 51t-132.5 56t-129 37.5t-125 -5.5t-120.5 -71.5q-27 -26 -54 -47t-62 -21q-27 0 -45.5 10t-29.5 25.5t-16 35t-5 39.5q0 58 25.5 118.5t72.5 109.5t114.5 80t150.5 31
q69 0 138.5 -22t138 -50.5t136 -56t132.5 -37t127 5.5t121 71q27 26 54 47t62 21q27 0 45.5 -10t29.5 -25.5t16 -35.5t5 -40z" />
    <glyph glyph-name="saraileftthai" 
d="M-1664 1933q-28 0 -51 10.5t-39.5 28.5t-25.5 42t-9 52t9 52.5t25.5 42.5t39.5 28.5t51 10.5h915q28 0 51 -10.5t39.5 -28.5t25.5 -42.5t9 -52.5t-9 -52t-25.5 -42t-39.5 -28.5t-51 -10.5h-915z" />
    <glyph glyph-name="saraileftthai" unicode="&#xf701;" 
d="M-1664 1933q-28 0 -51 10.5t-39.5 28.5t-25.5 42t-9 52t9 52.5t25.5 42.5t39.5 28.5t51 10.5h915q28 0 51 -10.5t39.5 -28.5t25.5 -42.5t9 -52.5t-9 -52t-25.5 -42t-39.5 -28.5t-51 -10.5h-915z" />
    <glyph glyph-name="saraiileftthai" 
d="M-1664 1933q-28 0 -51 10.5t-39.5 28.5t-25.5 42t-9 52t9 52.5t25.5 42.5t39.5 28.5t51 10.5h690v107q0 33 12.5 60.5t34.5 47.5t51 31t62 11t62 -11t50.5 -31t34 -47.5t12.5 -60.5v-224q0 -33 -12.5 -60.5t-34 -47.5t-50.5 -31t-62 -11h-850z" />
    <glyph glyph-name="saraiileftthai" unicode="&#xf702;" 
d="M-1664 1933q-28 0 -51 10.5t-39.5 28.5t-25.5 42t-9 52t9 52.5t25.5 42.5t39.5 28.5t51 10.5h690v107q0 33 12.5 60.5t34.5 47.5t51 31t62 11t62 -11t50.5 -31t34 -47.5t12.5 -60.5v-224q0 -33 -12.5 -60.5t-34 -47.5t-50.5 -31t-62 -11h-850z" />
    <glyph glyph-name="saraueleftthai" 
d="M-1664 1933q-28 0 -51 10.5t-39.5 28.5t-25.5 42t-9 52t9 52.5t25.5 42.5t39.5 28.5t51 10.5h447v28q0 61 23 115t63 94t94 63t115 23t115 -23t94 -63t63 -94t23 -115q0 -62 -23 -115.5t-63 -93.5t-94 -63t-115 -23h-742zM-1028 2228q0 -21 8.5 -40t23 -32.5t34 -21.5
t40.5 -8q22 0 41.5 8t34 21.5t23 32.5t8.5 40q0 23 -8.5 42.5t-23 34t-34 22.5t-41.5 8q-21 0 -40.5 -8t-34 -22.5t-23 -34t-8.5 -42.5z" />
    <glyph glyph-name="saraueleftthai" unicode="&#xf703;" 
d="M-1664 1933q-28 0 -51 10.5t-39.5 28.5t-25.5 42t-9 52t9 52.5t25.5 42.5t39.5 28.5t51 10.5h447v28q0 61 23 115t63 94t94 63t115 23t115 -23t94 -63t63 -94t23 -115q0 -62 -23 -115.5t-63 -93.5t-94 -63t-115 -23h-742zM-1028 2228q0 -21 8.5 -40t23 -32.5t34 -21.5
t40.5 -8q22 0 41.5 8t34 21.5t23 32.5t8.5 40q0 23 -8.5 42.5t-23 34t-34 22.5t-41.5 8q-21 0 -40.5 -8t-34 -22.5t-23 -34t-8.5 -42.5z" />
    <glyph glyph-name="saraueeleftthai" 
d="M-1664 1933q-28 0 -51 10.5t-39.5 28.5t-25.5 42t-9 52t9 52.5t25.5 42.5t39.5 28.5t51 10.5h252v115q0 31 12 57.5t33 45t48.5 29t58.5 10.5t58.5 -10.5t48 -29t32.5 -45t12 -57.5v-115h151v115q0 31 12 57.5t33 45t48.5 29t58.5 10.5t58.5 -10.5t48 -29t32.5 -45
t12 -57.5v-240q0 -32 -12 -58t-32.5 -44.5t-48 -29t-58.5 -10.5h-858z" />
    <glyph glyph-name="saraueeleftthai" unicode="&#xf704;" 
d="M-1664 1933q-28 0 -51 10.5t-39.5 28.5t-25.5 42t-9 52t9 52.5t25.5 42.5t39.5 28.5t51 10.5h252v115q0 31 12 57.5t33 45t48.5 29t58.5 10.5t58.5 -10.5t48 -29t32.5 -45t12 -57.5v-115h151v115q0 31 12 57.5t33 45t48.5 29t58.5 10.5t58.5 -10.5t48 -29t32.5 -45
t12 -57.5v-240q0 -32 -12 -58t-32.5 -44.5t-48 -29t-58.5 -10.5h-858z" />
    <glyph glyph-name="maieklowleftthai" 
d="M-737 2063q0 -34 -13 -62.5t-35 -48.5t-51.5 -31.5t-63.5 -11.5t-63.5 11.5t-52 31.5t-35.5 48.5t-13 62.5v288q0 34 13 62.5t35.5 48.5t52 31.5t63.5 11.5t63.5 -11.5t51.5 -31.5t35 -48.5t13 -62.5v-288z" />
    <glyph glyph-name="maieklowleftthai" unicode="&#xf705;" 
d="M-737 2063q0 -34 -13 -62.5t-35 -48.5t-51.5 -31.5t-63.5 -11.5t-63.5 11.5t-52 31.5t-35.5 48.5t-13 62.5v288q0 34 13 62.5t35.5 48.5t52 31.5t63.5 11.5t63.5 -11.5t51.5 -31.5t35 -48.5t13 -62.5v-288z" />
    <glyph glyph-name="maitholowleftthai" 
d="M-566 2260q-28 -67 -79.5 -125.5t-127 -101.5t-174.5 -68t-222 -25h-113q-24 0 -46 9.5t-38 26.5t-25.5 39.5t-9.5 48.5v124h-51q-25 0 -47 10t-38 26.5t-25.5 39t-9.5 48.5t9.5 48.5t25.5 39.5t38 26.5t47 9.5h198q25 0 46.5 -9.5t38 -26.5t26 -39.5t9.5 -48.5v-124
q63 1 115 15t91 38t65.5 56t39.5 70q11 27 30.5 47t43.5 30.5t51.5 11t53.5 -10.5t46 -31t31 -45.5t12 -53.5t-11 -55z" />
    <glyph glyph-name="maitholowleftthai" unicode="&#xf706;" 
d="M-566 2260q-28 -67 -79.5 -125.5t-127 -101.5t-174.5 -68t-222 -25h-113q-24 0 -46 9.5t-38 26.5t-25.5 39.5t-9.5 48.5v124h-51q-25 0 -47 10t-38 26.5t-25.5 39t-9.5 48.5t9.5 48.5t25.5 39.5t38 26.5t47 9.5h198q25 0 46.5 -9.5t38 -26.5t26 -39.5t9.5 -48.5v-124
q63 1 115 15t91 38t65.5 56t39.5 70q11 27 30.5 47t43.5 30.5t51.5 11t53.5 -10.5t46 -31t31 -45.5t12 -53.5t-11 -55z" />
    <glyph glyph-name="maitrilowleftthai" 
d="M-787 2356q6 28 21.5 49t37 33.5t47.5 16t52 -2.5q31 -8 52.5 -24.5t32.5 -39t13 -48.5t-6 -53q-18 -62 -48.5 -119.5t-71 -103t-89 -77t-101.5 -41.5h-103q-37 0 -60 23t-27 60q-2 24 -5.5 44.5t-11 35.5t-20 24t-31.5 9q-26 0 -39.5 -17.5t-16.5 -46.5q-4 -34 -27 -57
t-60 -23t-61.5 22.5t-27.5 57.5q-3 33 -16 48.5t-40 15.5q-28 0 -43.5 -24t-17.5 -69q-2 -62 -37 -91.5t-86 -29.5q-54 0 -86 35t-32 86q0 89 23.5 154.5t61.5 108t86.5 63.5t98.5 21q53 0 99 -25.5t77 -67.5q35 41 80 67t101 26q35 0 69.5 -11t64 -32.5t51.5 -53t32 -71.5
q21 23 38.5 54.5t25.5 73.5z" />
    <glyph glyph-name="maitrilowleftthai" unicode="&#xf707;" 
d="M-787 2356q6 28 21.5 49t37 33.5t47.5 16t52 -2.5q31 -8 52.5 -24.5t32.5 -39t13 -48.5t-6 -53q-18 -62 -48.5 -119.5t-71 -103t-89 -77t-101.5 -41.5h-103q-37 0 -60 23t-27 60q-2 24 -5.5 44.5t-11 35.5t-20 24t-31.5 9q-26 0 -39.5 -17.5t-16.5 -46.5q-4 -34 -27 -57
t-60 -23t-61.5 22.5t-27.5 57.5q-3 33 -16 48.5t-40 15.5q-28 0 -43.5 -24t-17.5 -69q-2 -62 -37 -91.5t-86 -29.5q-54 0 -86 35t-32 86q0 89 23.5 154.5t61.5 108t86.5 63.5t98.5 21q53 0 99 -25.5t77 -67.5q35 41 80 67t101 26q35 0 69.5 -11t64 -32.5t51.5 -53t32 -71.5
q21 23 38.5 54.5t25.5 73.5z" />
    <glyph glyph-name="maichattawalowleftthai" 
d="M-863 2058q0 -32 -12.5 -58.5t-33.5 -45.5t-49 -29.5t-59 -10.5q-32 0 -59.5 10.5t-48.5 29.5t-33 45.5t-12 58.5v81h-145q-26 0 -46.5 9.5t-35.5 26.5t-23 39t-8 48q0 25 8 47.5t23 39.5t35.5 26.5t46.5 9.5h145v81q0 32 12 58.5t33 45.5t49 29.5t60 10.5q31 0 59 -10.5
t49 -29.5t33 -45.5t12 -58.5v-81h145q25 0 46 -9.5t36 -26.5t23 -39.5t8 -47.5q0 -26 -8 -48t-23 -39t-36 -26.5t-46 -9.5h-145v-81z" />
    <glyph glyph-name="maichattawalowleftthai" unicode="&#xf708;" 
d="M-863 2058q0 -32 -12.5 -58.5t-33.5 -45.5t-49 -29.5t-59 -10.5q-32 0 -59.5 10.5t-48.5 29.5t-33 45.5t-12 58.5v81h-145q-26 0 -46.5 9.5t-35.5 26.5t-23 39t-8 48q0 25 8 47.5t23 39.5t35.5 26.5t46.5 9.5h145v81q0 32 12 58.5t33 45.5t49 29.5t60 10.5q31 0 59 -10.5
t49 -29.5t33 -45.5t12 -58.5v-81h145q25 0 46 -9.5t36 -26.5t23 -39.5t8 -47.5q0 -26 -8 -48t-23 -39t-36 -26.5t-46 -9.5h-145v-81z" />
    <glyph glyph-name="thanthakhatlowleftthai" 
d="M-826 2423q59 7 99 -22t50 -80q5 -26 -0.5 -51.5t-19 -45.5t-34.5 -33.5t-47 -16.5q-93 -11 -149.5 -52t-73.5 -115q-9 -30 -29 -51t-47 -31.5t-58 -11.5t-61 9q-32 11 -53.5 32.5t-32 48.5t-10 57t12.5 60q49 126 165 204.5t288 98.5z" />
    <glyph glyph-name="thanthakhatlowleftthai" unicode="&#xf709;" 
d="M-826 2423q59 7 99 -22t50 -80q5 -26 -0.5 -51.5t-19 -45.5t-34.5 -33.5t-47 -16.5q-93 -11 -149.5 -52t-73.5 -115q-9 -30 -29 -51t-47 -31.5t-58 -11.5t-61 9q-32 11 -53.5 32.5t-32 48.5t-10 57t12.5 60q49 126 165 204.5t288 98.5z" />
    <glyph glyph-name="maieklowrightthai" 
d="M-160 2063q0 -34 -13 -62.5t-35 -48.5t-51.5 -31.5t-63.5 -11.5t-63.5 11.5t-52 31.5t-35.5 48.5t-13 62.5v318q0 34 13 62.5t35.5 48.5t52 31.5t63.5 11.5t63.5 -11.5t51.5 -31.5t35 -48.5t13 -62.5v-318z" />
    <glyph glyph-name="maieklowrightthai" unicode="&#xf70a;" 
d="M-160 2063q0 -34 -13 -62.5t-35 -48.5t-51.5 -31.5t-63.5 -11.5t-63.5 11.5t-52 31.5t-35.5 48.5t-13 62.5v318q0 34 13 62.5t35.5 48.5t52 31.5t63.5 11.5t63.5 -11.5t51.5 -31.5t35 -48.5t13 -62.5v-318z" />
    <glyph glyph-name="maitholowrightthai" 
d="M-96 2263q-29 -68 -83 -126.5t-133 -102t-183 -68.5t-233 -25h-118q-26 0 -48.5 10t-39.5 27t-27 39.5t-10 48.5v125h-54q-26 0 -48.5 10t-39.5 27t-27 39.5t-10 48.5t10 48.5t27 39.5t39.5 27t48.5 10h208q26 0 48.5 -10t39.5 -27t27 -39.5t10 -48.5v-125q67 1 121 15
t95 38t68.5 56.5t41.5 70.5q11 27 31.5 47t46 31t54 11.5t56.5 -10.5t48.5 -31.5t32 -46t12.5 -54t-11 -55.5z" />
    <glyph glyph-name="maitholowrightthai" unicode="&#xf70b;" 
d="M-96 2263q-29 -68 -83 -126.5t-133 -102t-183 -68.5t-233 -25h-118q-26 0 -48.5 10t-39.5 27t-27 39.5t-10 48.5v125h-54q-26 0 -48.5 10t-39.5 27t-27 39.5t-10 48.5t10 48.5t27 39.5t39.5 27t48.5 10h208q26 0 48.5 -10t39.5 -27t27 -39.5t10 -48.5v-125q67 1 121 15
t95 38t68.5 56.5t41.5 70.5q11 27 31.5 47t46 31t54 11.5t56.5 -10.5t48.5 -31.5t32 -46t12.5 -54t-11 -55.5z" />
    <glyph glyph-name="maitrilowrightthai" 
d="M-366 2379q7 30 24.5 51.5t42.5 34.5t54.5 16.5t59.5 -2.5q36 -8 60.5 -25t37.5 -40.5t15 -50.5t-7 -55q-21 -65 -56.5 -126t-82 -111t-101.5 -84t-115 -45h-119q-42 0 -68.5 24t-31.5 61q-3 51 -21.5 85t-55.5 34q-29 0 -46 -24.5t-19 -55.5q-1 -18 -8.5 -34t-20 -28
t-30 -19t-38.5 -7q-46 0 -74.5 24.5t-30.5 63.5q-2 35 -16.5 57.5t-44.5 22.5q-32 0 -51.5 -25.5t-21.5 -73.5q-1 -32 -12.5 -55t-30 -38.5t-43.5 -23t-54 -7.5q-32 0 -57 10t-42.5 26.5t-27 39t-9.5 48.5q0 93 26.5 161.5t70.5 113t99.5 66.5t114.5 22q60 0 112.5 -26.5
t88.5 -69.5q41 42 92 69t116 27q40 0 79.5 -11.5t73.5 -33.5t59 -54.5t36 -74.5q19 24 41 61.5t32 81.5z" />
    <glyph glyph-name="maitrilowrightthai" unicode="&#xf70c;" 
d="M-366 2379q7 30 24.5 51.5t42.5 34.5t54.5 16.5t59.5 -2.5q36 -8 60.5 -25t37.5 -40.5t15 -50.5t-7 -55q-21 -65 -56.5 -126t-82 -111t-101.5 -84t-115 -45h-119q-42 0 -68.5 24t-31.5 61q-3 51 -21.5 85t-55.5 34q-29 0 -46 -24.5t-19 -55.5q-1 -18 -8.5 -34t-20 -28
t-30 -19t-38.5 -7q-46 0 -74.5 24.5t-30.5 63.5q-2 35 -16.5 57.5t-44.5 22.5q-32 0 -51.5 -25.5t-21.5 -73.5q-1 -32 -12.5 -55t-30 -38.5t-43.5 -23t-54 -7.5q-32 0 -57 10t-42.5 26.5t-27 39t-9.5 48.5q0 93 26.5 161.5t70.5 113t99.5 66.5t114.5 22q60 0 112.5 -26.5
t88.5 -69.5q41 42 92 69t116 27q40 0 79.5 -11.5t73.5 -33.5t59 -54.5t36 -74.5q19 24 41 61.5t32 81.5z" />
    <glyph glyph-name="maichattawalowrightthai" 
d="M-164 2067q0 -32 -12.5 -59t-33.5 -46.5t-49.5 -30t-60.5 -10.5t-60 10.5t-49 30t-33.5 46.5t-12.5 59v79h-143q-26 0 -47 10t-36 27t-23.5 39.5t-8.5 48.5t8.5 48.5t23.5 39.5t36 27t47 10h143v79q0 32 12.5 59t33.5 46.5t49.5 30t60.5 10.5t60 -10.5t49 -30t33.5 -46.5
t12.5 -59v-79h143q26 0 47 -10t36 -27t23.5 -39.5t8.5 -48.5t-8.5 -48.5t-23.5 -39.5t-36 -27t-47 -10h-143v-79z" />
    <glyph glyph-name="maichattawalowrightthai" unicode="&#xf70d;" 
d="M-164 2067q0 -32 -12.5 -59t-33.5 -46.5t-49.5 -30t-60.5 -10.5t-60 10.5t-49 30t-33.5 46.5t-12.5 59v79h-143q-26 0 -47 10t-36 27t-23.5 39.5t-8.5 48.5t8.5 48.5t23.5 39.5t36 27t47 10h143v79q0 32 12.5 59t33.5 46.5t49.5 30t60.5 10.5t60 -10.5t49 -30t33.5 -46.5
t12.5 -59v-79h143q26 0 47 -10t36 -27t23.5 -39.5t8.5 -48.5t-8.5 -48.5t-23.5 -39.5t-36 -27t-47 -10h-143v-79z" />
    <glyph glyph-name="thanthakhatlowrightthai" 
d="M-215 2419q59 7 99 -22t50 -80q5 -26 -0.5 -51.5t-19 -45.5t-34.5 -33.5t-47 -16.5q-93 -11 -149.5 -52t-73.5 -115q-9 -30 -29 -51t-47 -31.5t-58 -11.5t-61 9q-32 11 -53.5 32.5t-32 48.5t-10 57t12.5 60q49 126 165 204.5t288 98.5z" />
    <glyph glyph-name="thanthakhatlowrightthai" unicode="&#xf70e;" 
d="M-215 2419q59 7 99 -22t50 -80q5 -26 -0.5 -51.5t-19 -45.5t-34.5 -33.5t-47 -16.5q-93 -11 -149.5 -52t-73.5 -115q-9 -30 -29 -51t-47 -31.5t-58 -11.5t-61 9q-32 11 -53.5 32.5t-32 48.5t-10 57t12.5 60q49 126 165 204.5t288 98.5z" />
    <glyph glyph-name="maihanakatleftthai" 
d="M-1078 1937q-32 0 -60.5 10.5t-49.5 30t-33 46.5t-12 59v143q0 32 12 59t33 46.5t49.5 30t60.5 10.5t60.5 -10.5t49.5 -30t33.5 -46.5t12.5 -59v-31h996q27 0 49.5 -10t38 -27.5t24.5 -41t9 -50.5t-9 -50.5t-24.5 -41t-38 -27.5t-49.5 -10h-1152z" />
    <glyph glyph-name="maihanakatleftthai" unicode="&#xf710;" 
d="M-1078 1937q-32 0 -60.5 10.5t-49.5 30t-33 46.5t-12 59v143q0 32 12 59t33 46.5t49.5 30t60.5 10.5t60.5 -10.5t49.5 -30t33.5 -46.5t12.5 -59v-31h996q27 0 49.5 -10t38 -27.5t24.5 -41t9 -50.5t-9 -50.5t-24.5 -41t-38 -27.5t-49.5 -10h-1152z" />
    <glyph glyph-name="nikhahitleftthai" 
d="M-1085 2224q0 -23 9 -44t25 -36.5t36.5 -25t43.5 -9.5t44 9.5t36.5 25t25 36.5t9.5 44t-9.5 44t-25 36.5t-36.5 25t-44 9.5t-43.5 -9.5t-36.5 -25t-25 -36.5t-9 -44zM-1290 2224q0 66 25 124t68.5 101.5t101.5 69t124 25.5q64 0 122.5 -25.5t102 -69t69.5 -101.5t26 -124
t-26 -124t-69.5 -101.5t-102 -68.5t-122.5 -25q-66 0 -124 25t-101.5 68.5t-68.5 101.5t-25 124z" />
    <glyph glyph-name="nikhahitleftthai" unicode="&#xf711;" 
d="M-1085 2224q0 -23 9 -44t25 -36.5t36.5 -25t43.5 -9.5t44 9.5t36.5 25t25 36.5t9.5 44t-9.5 44t-25 36.5t-36.5 25t-44 9.5t-43.5 -9.5t-36.5 -25t-25 -36.5t-9 -44zM-1290 2224q0 66 25 124t68.5 101.5t101.5 69t124 25.5q64 0 122.5 -25.5t102 -69t69.5 -101.5t26 -124
t-26 -124t-69.5 -101.5t-102 -68.5t-122.5 -25q-66 0 -124 25t-101.5 68.5t-68.5 101.5t-25 124z" />
    <glyph glyph-name="maitaikhuleftthai" 
d="M-1274 2464q-53 0 -85 -14.5t-49.5 -36.5t-23.5 -47.5t-6 -46.5q0 -15 4.5 -34.5t15.5 -37.5t29 -30t45 -12q31 0 52 18t31 51q10 42 40 63t72 21q45 0 77 -19t41 -65q7 -32 26 -50.5t48 -18.5q26 0 42.5 16t21.5 44v-1q5 24 18.5 42.5t32 30t40.5 16.5t45 3
q26 -3 50 -15t41.5 -32t26.5 -48t5 -63q-8 -64 -34 -110t-64.5 -76t-86 -44t-97.5 -14q-38 0 -71 11t-61.5 28.5t-52 40t-41.5 46.5q-20 -25 -46.5 -48t-58 -40t-66 -27.5t-70.5 -10.5q-95 0 -159 37t-102.5 92.5t-55 119t-16.5 116.5q0 101 35 174.5t93 121t133.5 70.5
t155.5 23h688q24 0 43.5 -10t34 -27t22 -39.5t7.5 -47.5q0 -53 -29.5 -86.5t-77.5 -33.5h-663z" />
    <glyph glyph-name="maitaikhuleftthai" unicode="&#xf712;" 
d="M-1274 2464q-53 0 -85 -14.5t-49.5 -36.5t-23.5 -47.5t-6 -46.5q0 -15 4.5 -34.5t15.5 -37.5t29 -30t45 -12q31 0 52 18t31 51q10 42 40 63t72 21q45 0 77 -19t41 -65q7 -32 26 -50.5t48 -18.5q26 0 42.5 16t21.5 44v-1q5 24 18.5 42.5t32 30t40.5 16.5t45 3
q26 -3 50 -15t41.5 -32t26.5 -48t5 -63q-8 -64 -34 -110t-64.5 -76t-86 -44t-97.5 -14q-38 0 -71 11t-61.5 28.5t-52 40t-41.5 46.5q-20 -25 -46.5 -48t-58 -40t-66 -27.5t-70.5 -10.5q-95 0 -159 37t-102.5 92.5t-55 119t-16.5 116.5q0 101 35 174.5t93 121t133.5 70.5
t155.5 23h688q24 0 43.5 -10t34 -27t22 -39.5t7.5 -47.5q0 -53 -29.5 -86.5t-77.5 -33.5h-663z" />
    <glyph glyph-name="maiekupperleftthai" 
d="M-655 2752q0 -32 -12 -59t-33 -46.5t-49.5 -30t-60.5 -10.5t-60.5 10.5t-49.5 30t-33.5 46.5t-12.5 59v249q0 32 12.5 59t33.5 46.5t49.5 30t60.5 10.5t60.5 -10.5t49.5 -30t33 -46.5t12 -59v-249z" />
    <glyph glyph-name="maiekupperleftthai" unicode="&#xf713;" 
d="M-655 2752q0 -32 -12 -59t-33 -46.5t-49.5 -30t-60.5 -10.5t-60.5 10.5t-49.5 30t-33.5 46.5t-12.5 59v249q0 32 12.5 59t33.5 46.5t49.5 30t60.5 10.5t60.5 -10.5t49.5 -30t33 -46.5t12 -59v-249z" />
    <glyph glyph-name="maithoupperleftthai" 
d="M-401 2943q-29 -68 -83 -126.5t-133 -102t-182.5 -68.5t-232.5 -25h-108q-26 0 -48.5 10t-39.5 27t-27 39.5t-10 48.5v125h-61q-26 0 -48.5 10t-39.5 27t-27 39.5t-10 48.5t10 48.5t27 39.5t39.5 27t48.5 10h202q26 0 48.5 -10t39.5 -27t27 -39.5t10 -48.5v-125
q67 1 122 15t97 38t70.5 56.5t42.5 70.5q11 27 31.5 47t46 31t54 11.5t56.5 -10.5t48 -31.5t30.5 -46t11 -54t-11.5 -55.5z" />
    <glyph glyph-name="maithoupperleftthai" unicode="&#xf714;" 
d="M-401 2943q-29 -68 -83 -126.5t-133 -102t-182.5 -68.5t-232.5 -25h-108q-26 0 -48.5 10t-39.5 27t-27 39.5t-10 48.5v125h-61q-26 0 -48.5 10t-39.5 27t-27 39.5t-10 48.5t10 48.5t27 39.5t39.5 27t48.5 10h202q26 0 48.5 -10t39.5 -27t27 -39.5t10 -48.5v-125
q67 1 122 15t97 38t70.5 56.5t42.5 70.5q11 27 31.5 47t46 31t54 11.5t56.5 -10.5t48 -31.5t30.5 -46t11 -54t-11.5 -55.5z" />
    <glyph glyph-name="maitriupperleftthai" 
d="M-520 3028q7 26 23.5 46t38 32.5t48 16.5t53.5 -2q32 -8 54 -24t33.5 -37t13.5 -46.5t-6 -50.5q-19 -61 -51 -118.5t-74 -104t-91.5 -78t-103.5 -41.5h-108q-38 0 -62 22t-27 57q-4 46 -19 78t-50 32q-25 0 -41 -16t-19 -43q-4 -34 -26.5 -57t-60.5 -23q-36 0 -64 20
t-30 60q-2 29 -17 44t-41 15q-32 0 -46.5 -23.5t-16.5 -67.5q-2 -59 -38 -87.5t-88 -28.5q-58 0 -90.5 34t-32.5 82q0 87 24 150.5t63 105t89.5 62t103.5 20.5q54 0 100 -25.5t81 -63.5q36 38 82.5 63.5t106.5 25.5q36 0 71.5 -10.5t65.5 -31.5t52 -51.5t31 -70.5
q18 22 39 60t30 75z" />
    <glyph glyph-name="maitriupperleftthai" unicode="&#xf715;" 
d="M-520 3028q7 26 23.5 46t38 32.5t48 16.5t53.5 -2q32 -8 54 -24t33.5 -37t13.5 -46.5t-6 -50.5q-19 -61 -51 -118.5t-74 -104t-91.5 -78t-103.5 -41.5h-108q-38 0 -62 22t-27 57q-4 46 -19 78t-50 32q-25 0 -41 -16t-19 -43q-4 -34 -26.5 -57t-60.5 -23q-36 0 -64 20
t-30 60q-2 29 -17 44t-41 15q-32 0 -46.5 -23.5t-16.5 -67.5q-2 -59 -38 -87.5t-88 -28.5q-58 0 -90.5 34t-32.5 82q0 87 24 150.5t63 105t89.5 62t103.5 20.5q54 0 100 -25.5t81 -63.5q36 38 82.5 63.5t106.5 25.5q36 0 71.5 -10.5t65.5 -31.5t52 -51.5t31 -70.5
q18 22 39 60t30 75z" />
    <glyph glyph-name="maichattawaupperleftthai" 
d="M-664 2747q0 -32 -12 -58t-33 -44.5t-48.5 -29t-58.5 -10.5t-58.5 10.5t-48 29t-32.5 44.5t-12 58v83h-147q-25 0 -45.5 9.5t-35 26t-22.5 38.5t-8 47t8 47t22.5 38.5t35 26t45.5 9.5h147v83q0 31 12 57.5t33 45t48.5 29t58.5 10.5t58.5 -10.5t48 -29t32.5 -45t12 -57.5
v-83h147q25 0 45.5 -9.5t35 -26t22.5 -38.5t8 -47t-8 -47t-22.5 -38.5t-35 -26t-45.5 -9.5h-147v-83z" />
    <glyph glyph-name="maichattawaupperleftthai" unicode="&#xf716;" 
d="M-664 2747q0 -32 -12 -58t-33 -44.5t-48.5 -29t-58.5 -10.5t-58.5 10.5t-48 29t-32.5 44.5t-12 58v83h-147q-25 0 -45.5 9.5t-35 26t-22.5 38.5t-8 47t8 47t22.5 38.5t35 26t45.5 9.5h147v83q0 31 12 57.5t33 45t48.5 29t58.5 10.5t58.5 -10.5t48 -29t32.5 -45t12 -57.5
v-83h147q25 0 45.5 -9.5t35 -26t22.5 -38.5t8 -47t-8 -47t-22.5 -38.5t-35 -26t-45.5 -9.5h-147v-83z" />
    <glyph glyph-name="thanthakhatupperleftthai" 
d="M-479 2916q59 7 99 -22t50 -80q5 -26 -0.5 -51.5t-19 -45.5t-34.5 -33.5t-47 -16.5q-93 -11 -149.5 -52t-73.5 -115q-9 -30 -29 -51t-47 -31.5t-58 -11.5t-61 9q-32 11 -53.5 32.5t-32 48.5t-10 57t12.5 60q49 126 165 204.5t288 98.5z" />
    <glyph glyph-name="thanthakhatupperleftthai" unicode="&#xf717;" 
d="M-479 2916q59 7 99 -22t50 -80q5 -26 -0.5 -51.5t-19 -45.5t-34.5 -33.5t-47 -16.5q-93 -11 -149.5 -52t-73.5 -115q-9 -30 -29 -51t-47 -31.5t-58 -11.5t-61 9q-32 11 -53.5 32.5t-32 48.5t-10 57t12.5 60q49 126 165 204.5t288 98.5z" />
    <glyph glyph-name="uni00A0" unicode="&#xa0;" horiz-adv-x="496" 
 />
    <glyph glyph-name="cent" unicode="&#xa2;" horiz-adv-x="1544" 
d="M733 1436q-53 -15 -102 -48t-87 -88t-61 -135t-23 -188q0 -79 18 -146t52.5 -119.5t85.5 -88t117 -51.5v864zM733 310q-157 10 -271.5 64.5t-188.5 142.5t-110 205.5t-36 254.5q0 148 38 273.5t113.5 220t189 153.5t265.5 74v191q0 31 21.5 50t47.5 19q25 0 46.5 -18.5
t21.5 -50.5v-186q110 -8 201 -39.5t156 -78t100.5 -104t35.5 -116.5q0 -36 -12.5 -63.5t-34 -45.5t-50.5 -27t-61 -9q-26 0 -45 7t-34 18.5t-27.5 27t-24.5 32.5q-15 20 -30 41t-37 39.5t-54.5 33t-82.5 23.5v-875q46 9 77.5 24.5t53 34.5t37.5 40.5t31 42.5
q14 19 28.5 37.5t32 32.5t40.5 22.5t54 8.5t57 -10.5t44 -28t28 -40t10 -47.5q0 -55 -29 -116.5t-89.5 -115t-153.5 -93t-221 -49.5v-203q0 -32 -21.5 -50.5t-46.5 -18.5q-13 0 -25.5 5t-22 14t-15.5 21.5t-6 28.5v203z" />
    <glyph glyph-name="sterling" unicode="&#xa3;" horiz-adv-x="1585" 
d="M947 1072q69 0 104 -25.5t35 -79.5q0 -104 -139 -104h-254q5 -11 9 -25.5t7 -30.5t5 -31.5t3 -28.5q1 -73 -13.5 -136.5t-46 -122t-81 -113.5t-117.5 -111q55 26 97.5 41t79 22.5t70 9.5t70.5 2q73 0 135 -13t122.5 -25t124.5 -16t141 14q28 7 54 11t38 4q30 0 54 -11.5
t40.5 -32t25 -48t8.5 -58.5q0 -56 -25 -96t-65 -65t-91 -36.5t-102 -11.5q-63 0 -129 15t-137 33q-84 21 -173 40t-187 19q-149 0 -264 -76q-47 -26 -89.5 -27.5t-74.5 17.5t-51 55.5t-19 86.5q0 27 9 52.5t24.5 50.5t35.5 49.5t42 50.5q30 36 61 75t55.5 84t40 96.5
t15.5 113.5q0 43 -11.5 86.5t-28.5 86.5h-164q-52 0 -84.5 25.5t-32.5 78.5q0 48 25 76.5t73 28.5h132q-27 41 -50.5 91t-40 102t-26 102t-9.5 91q0 124 50.5 230t138.5 182.5t207 120t256 43.5q114 0 208.5 -20t170 -55t131.5 -81t93.5 -97.5t56 -106.5t18.5 -106
q0 -40 -13 -71t-36 -52t-55 -32t-70 -11q-32 0 -54.5 10.5t-38.5 28.5t-28 41t-22 47q-17 38 -38 78.5t-55.5 73.5t-88 54.5t-135.5 21.5q-66 0 -128 -22t-109.5 -64t-76.5 -102t-29 -136q0 -38 9 -85.5t23.5 -96.5t33 -95.5t37.5 -83.5h313z" />
    <glyph glyph-name="yen" unicode="&#xa5;" horiz-adv-x="1651" 
d="M640 594h-357q-40 0 -63 26t-23 61q0 34 24.5 59.5t61.5 25.5h357v97l-47 80h-310q-39 0 -62.5 26t-23.5 61q0 37 24 61.5t62 24.5h210l-390 643q-33 54 -32.5 102t25.5 84t71.5 57t105.5 21q36 0 63 -13t46 -31t31 -37t18 -31l394 -753l395 754q6 12 18 31t31 37t46 31
t63 13q61 0 107 -22t70.5 -59t24 -84.5t-31.5 -99.5l-390 -643h209q18 0 33.5 -6.5t27.5 -18t19 -27t7 -34.5q0 -36 -25.5 -61.5t-61.5 -25.5h-310l-47 -80v-97h357q19 0 35.5 -7.5t27.5 -19.5t17.5 -27t6.5 -31t-6.5 -31.5t-17.5 -28t-27.5 -20t-35.5 -7.5h-357v-433
q0 -84 -48.5 -135.5t-136.5 -51.5t-136.5 51.5t-48.5 135.5v433z" />
    <glyph glyph-name="copyright" unicode="&#xa9;" horiz-adv-x="2228" 
d="M66 987q0 145 38 278.5t106.5 248.5t164 209t211.5 160.5t249 103t275 36.5t274.5 -36.5t248 -103t211 -160.5t163.5 -209t105.5 -248.5t37.5 -278.5q0 -149 -37.5 -284t-105.5 -250t-163.5 -208t-211 -158.5t-248 -100.5t-274.5 -35t-275 35t-249 100.5t-211.5 158.5
t-164 208t-106.5 249.5t-38 284.5zM307 987q0 -180 60 -332.5t166.5 -264.5t254 -175t322.5 -63q113 0 216 28.5t192.5 81.5t162 128t124.5 167.5t80 201t28 228.5t-28 228t-80 200t-124.5 166t-162 126t-192.5 80t-216 28q-175 0 -322.5 -62t-254 -172.5t-166.5 -262
t-60 -331.5zM556 981q0 131 38.5 243t110.5 194.5t175 129t233 46.5q108 0 193.5 -31t144.5 -79t90.5 -106t31.5 -111q0 -31 -9.5 -52t-23.5 -34t-29 -19t-26 -6q-26 0 -43.5 7t-30 18.5t-21.5 27t-17 32.5q-14 29 -33 56t-49 48t-73 33.5t-105 12.5q-71 0 -128 -27.5
t-98 -79t-63 -126.5t-22 -170q0 -93 22 -169t63.5 -130t100 -84t130.5 -30q58 0 98.5 12.5t70 33.5t49.5 48t37 56q11 19 22 36t25.5 30t32.5 20.5t43 7.5q39 0 63.5 -24.5t24.5 -69.5q0 -31 -14 -69t-40.5 -77t-66.5 -76.5t-91.5 -66.5t-115 -46.5t-138.5 -17.5
q-127 0 -231 47t-177.5 129t-113.5 193.5t-40 239.5z" />
    <glyph glyph-name="guillemotleft" unicode="&#xab;" horiz-adv-x="1286" 
d="M826 778l261 -178q31 -20 52 -49.5t21 -66.5q0 -21 -7.5 -41t-20.5 -35.5t-31 -25t-39 -9.5q-27 0 -46.5 11t-36.5 23l-272 196q-41 29 -62.5 76t-21.5 99t21.5 98.5t62.5 74.5l272 197q17 12 37 23.5t46 11.5q21 0 39 -9.5t31 -25t20.5 -35.5t7.5 -42q0 -35 -21 -65
t-53 -51zM285 778l261 -178q31 -20 52 -49.5t21 -66.5q0 -21 -7.5 -41t-20.5 -35.5t-31 -25t-39 -9.5q-27 0 -46.5 11t-36.5 23l-272 196q-41 29 -62.5 76t-21.5 99t21.5 98.5t62.5 74.5l272 197q17 12 37 23.5t46 11.5q21 0 39 -9.5t31 -25t20.5 -35.5t7.5 -42
q0 -35 -21 -65t-53 -51z" />
    <glyph glyph-name="registered" unicode="&#xae;" horiz-adv-x="2216" 
d="M66 987q0 145 38 278.5t106.5 248.5t164 209t211.5 160.5t249 103t275 36.5t274.5 -36.5t248 -103t211 -160.5t163.5 -209t105.5 -248.5t37.5 -278.5q0 -149 -37.5 -284t-105.5 -250t-163.5 -208t-211 -158.5t-248 -100.5t-274.5 -35t-275 35t-249 100.5t-211.5 158.5
t-164 208t-106.5 249.5t-38 284.5zM307 987q0 -180 60 -332.5t166.5 -264.5t254 -175t322.5 -63q113 0 216 28.5t192.5 81.5t162 128t124.5 167.5t80 201t28 228.5t-28 228t-80 200t-124.5 166t-162 126t-192.5 80t-216 28q-175 0 -322.5 -62t-254 -172.5t-166.5 -262
t-60 -331.5zM709 1401q0 28 10 49.5t26 36t37 21.5t43 7h352q91 0 164 -15.5t123 -52.5t77 -100t27 -157q0 -75 -22.5 -131t-60 -94t-85.5 -58.5t-99 -23.5l191 -254q16 -21 25.5 -43t10 -43.5t-9.5 -42t-33 -38.5q-29 -23 -57 -27t-53 5t-47 28t-38 42l-264 374h-87v-334
q0 -60 -33 -89t-81 -29q-24 0 -45 7t-36.5 22t-25 37t-9.5 52v851zM939 1063h223q32 0 61 5.5t50.5 21t34.5 42.5t13 69q0 41 -13 67t-34.5 40.5t-50.5 20t-61 5.5h-223v-271z" />
    <glyph glyph-name="guillemotright" unicode="&#xbb;" horiz-adv-x="1286" 
d="M200 955q-32 21 -53 51t-21 65q0 22 7.5 42t20.5 35.5t31 25t39 9.5q26 0 46 -11.5t37 -23.5l272 -197q41 -28 62.5 -74.5t21.5 -98.5t-21.5 -99t-62.5 -76l-272 -196q-17 -12 -36.5 -23t-46.5 -11q-21 0 -39 9.5t-31 25t-20.5 35.5t-7.5 41q0 37 21 66.5t52 49.5
l261 178zM741 955q-32 21 -53 51t-21 65q0 22 7.5 42t20.5 35.5t31 25t39 9.5q26 0 46 -11.5t37 -23.5l272 -197q41 -28 62.5 -74.5t21.5 -98.5t-21.5 -99t-62.5 -76l-272 -196q-17 -12 -36.5 -23t-46.5 -11q-21 0 -39 9.5t-31 25t-20.5 35.5t-7.5 41q0 37 21 66.5t52 49.5
l261 178z" />
    <glyph glyph-name="onequarter" unicode="&#xbc;" horiz-adv-x="2458" 
d="M273 1555q-35 0 -55.5 19.5t-20.5 61.5q0 22 6.5 36.5t20.5 23.5t34.5 15t49.5 11l65 11q40 7 68 21.5t47 34t32.5 42t25.5 44.5q9 17 18.5 33t22 28.5t29.5 20t41 7.5q45 0 69.5 -19.5t24.5 -72.5v-916q0 -28 -5.5 -51t-19.5 -39t-37.5 -25t-59.5 -9q-66 0 -94 33.5
t-28 90.5v643q-55 -28 -116 -36t-118 -8zM1660 1959q10 18 23.5 33.5t30.5 25t37 10.5t43 -9q27 -12 39.5 -29.5t14.5 -37t-3.5 -40t-14.5 -37.5l-983 -1856q-10 -19 -24.5 -34t-32.5 -22.5t-40.5 -7t-47.5 12.5q-20 9 -30 24t-12.5 33t2 37.5t14.5 37.5zM1964 888
l-377 -468h377v468zM1964 248h-458q-30 0 -51.5 9t-36 23t-21.5 31t-7 33q0 35 6 54.5t16 30.5l511 623q13 15 27 28t31.5 22t39.5 14t51 5q57 0 93 -28.5t36 -76.5v-596h86q35 0 56 -24t21 -62t-21 -62t-56 -24h-86v-135q0 -21 -5.5 -43t-19 -40t-36.5 -29.5t-57 -11.5
q-35 0 -57.5 11.5t-36.5 29.5t-19.5 40t-5.5 43v135z" />
    <glyph glyph-name="onehalf" unicode="&#xbd;" horiz-adv-x="2458" 
d="M2274 205q52 0 81 -25.5t29 -77.5q0 -58 -29 -80t-81 -22h-664q-32 0 -55.5 9.5t-38.5 26t-22.5 38t-7.5 45.5q0 41 19.5 83t64.5 88.5t118 99.5t180 115q73 42 124 72t82.5 59.5t46 63.5t14.5 82q0 35 -17.5 63.5t-46 48.5t-66 31t-77.5 11q-79 0 -140.5 -37.5
t-90.5 -117.5q-7 -20 -14 -34.5t-17 -24.5t-24.5 -15t-36.5 -5q-47 0 -79 20.5t-32 70.5q0 70 35.5 131t97 105t144.5 69.5t177 25.5q101 0 181 -27.5t135.5 -74t85 -107t29.5 -125.5q0 -73 -18 -124.5t-51.5 -90.5t-82.5 -70.5t-112 -65.5q-86 -45 -146 -77t-101 -58
t-66.5 -49t-41.5 -50h514zM1590 1959q10 18 23.5 33.5t30.5 25t37 10.5t43 -9q27 -12 39.5 -29.5t14.5 -37t-3.5 -40t-14.5 -37.5l-983 -1856q-10 -19 -24.5 -34t-32.5 -22.5t-40.5 -7t-47.5 12.5q-20 9 -30 24t-12.5 33t2 37.5t14.5 37.5zM273 1555q-35 0 -55.5 19.5
t-20.5 61.5q0 22 6.5 36.5t20.5 23.5t34.5 15t49.5 11l65 11q40 7 68 21.5t47 34t32.5 42t25.5 44.5q9 17 18.5 33t22 28.5t29.5 20t41 7.5q45 0 69.5 -19.5t24.5 -72.5v-916q0 -28 -5.5 -51t-19.5 -39t-37.5 -25t-59.5 -9q-66 0 -94 33.5t-28 90.5v643q-55 -28 -116 -36
t-118 -8z" />
    <glyph glyph-name="threequarters" unicode="&#xbe;" horiz-adv-x="2458" 
d="M1984 888l-377 -468h377v468zM1984 248h-458q-30 0 -51.5 9t-36 23t-21.5 31t-7 33q0 35 6 54.5t16 30.5l511 623q13 15 27 28t31.5 22t39.5 14t51 5q57 0 93 -28.5t36 -76.5v-596h86q35 0 56 -24t21 -62t-21 -62t-56 -24h-86v-135q0 -21 -5.5 -43t-19 -40t-36.5 -29.5
t-57 -11.5q-35 0 -57.5 11.5t-36.5 29.5t-19.5 40t-5.5 43v135zM1771 1959q10 18 23.5 33.5t30.5 25t37 10.5t43 -9q27 -12 39.5 -29.5t14.5 -37t-3.5 -40t-14.5 -37.5l-983 -1856q-10 -19 -24.5 -34t-32.5 -22.5t-40.5 -7t-47.5 12.5q-20 9 -30 24t-12.5 33t2 37.5
t14.5 37.5zM151 1084q0 42 30 68t83 26q22 0 37 -5.5t26.5 -14t19.5 -20t16 -23.5q12 -19 26.5 -38t37.5 -34t57.5 -24.5t86.5 -9.5q55 0 96 13.5t67.5 36t39.5 52t13 62.5q0 30 -7.5 56.5t-26.5 47.5t-52 35t-84 20q-16 2 -38 5t-42.5 11t-34.5 22t-14 37q0 29 8.5 47
t26 28.5t43 15t58.5 6.5q69 5 102.5 42.5t33.5 97.5q0 32 -14.5 56.5t-39 41t-57 25t-69.5 8.5q-45 0 -76.5 -8.5t-53.5 -22t-37.5 -31t-28.5 -34.5q-9 -12 -18 -22.5t-20.5 -18.5t-26.5 -13t-36 -5t-40.5 4t-33.5 13t-22.5 24t-8.5 37q0 46 19 84t50.5 67.5t73.5 51
t88.5 35.5t93.5 21t90 7q115 0 195 -26t130 -68t73 -95.5t23 -108.5q0 -72 -42.5 -132t-126.5 -99q49 -13 86 -38t61.5 -58t36.5 -73t12 -82q0 -92 -36.5 -160t-100 -113t-148.5 -67.5t-182 -22.5q-122 0 -203.5 29t-130 70t-69 86.5t-20.5 77.5z" />
    <glyph glyph-name="multiply" unicode="&#xd7;" horiz-adv-x="1434" 
d="M1308 357q21 -21 32 -47t11.5 -52t-10 -51t-32.5 -46q-23 -22 -48.5 -32t-51.5 -9t-50.5 12.5t-44.5 32.5l-392 401l-392 -401q-23 -23 -49.5 -34.5t-53.5 -10.5t-53 13.5t-48 36.5q-20 22 -28 47t-5.5 50t13.5 48t30 42l391 394l-391 392q-21 21 -32 45.5t-12 50t8 50.5
t30 46q19 19 43.5 30.5t51.5 12.5t54 -9t51 -32l392 -401l393 401q22 22 47 33t51.5 11t51.5 -11t47 -33q22 -23 31.5 -49t8 -52t-13 -50t-30.5 -43l-391 -392z" />
    <glyph glyph-name="divide" unicode="&#xf7;" horiz-adv-x="1667" 
d="M623 201q0 43 17 82t45.5 69t66.5 48t79 18q43 0 81.5 -18t68 -48t46.5 -69t17 -82q0 -39 -17 -75t-45.5 -64t-66.5 -45t-79 -17q-42 0 -80.5 16t-68 43t-47 63.5t-17.5 78.5zM623 1298q0 43 17 81.5t45.5 68t66.5 46.5t79 17q43 0 81.5 -17t68 -46.5t46.5 -68t17 -81.5
q0 -41 -17 -79t-45.5 -66.5t-66.5 -45.5t-79 -17q-42 0 -80.5 17t-68 45.5t-47 66.5t-17.5 79zM259 619q-73 0 -117 36t-44 96t44 96t117 36h1145q73 0 117 -36t44 -96t-44 -96t-117 -36h-1145z" />
    <glyph glyph-name="kokaithai" unicode="&#xe01;" horiz-adv-x="1769" 
d="M1614 128q0 -35 -13.5 -62.5t-36.5 -46.5t-54 -29t-66 -10t-66 10t-54 29t-36.5 46.5t-13.5 62.5v912q0 71 -22 140t-73 124t-135 89.5t-208 36.5q-103 1 -180.5 -22.5t-131 -59.5t-84 -77t-39.5 -75q53 -46 86 -123.5t33 -167.5v-777q0 -35 -13 -62.5t-36 -46.5
t-53.5 -29t-65.5 -10t-65.5 10t-53.5 29t-36 46.5t-13 62.5v781q0 44 -9.5 89t-37.5 86q-25 36 -43 57.5t-26 41t-4.5 42t21.5 61.5q38 84 100.5 162t154 137.5t214.5 95t282 35.5q148 0 263.5 -27t202 -75.5t146 -114.5t96.5 -144.5t53.5 -165.5t16.5 -177v-884z" />
    <glyph glyph-name="khokhaithai" unicode="&#xe02;" horiz-adv-x="1556" 
d="M819 369l249 1204q7 34 26.5 60.5t46.5 43t59.5 21.5t66.5 -2q34 -8 62 -26t46 -44.5t24.5 -58.5t-0.5 -66l-292 -1314q-11 -47 -38.5 -85.5t-66.5 -65.5t-87 -41.5t-99 -14.5q-52 0 -99.5 15t-86.5 42t-66.5 65.5t-37.5 86.5l-272 1220h-112q-28 0 -51 10.5t-39.5 29
t-25.5 43t-9 52.5t9 52.5t25.5 43t39.5 29t51 10.5h310q28 0 49 -10t36 -28t24.5 -42.5t15.5 -54.5z" />
    <glyph glyph-name="khokhuatthai" unicode="&#xe03;" horiz-adv-x="1597" 
d="M1106 1541q0 35 13 64t36 50t53.5 32.5t65.5 11.5t65.5 -11.5t53.5 -32.5t36 -50t13 -64v-1009q0 -147 -50 -255t-133.5 -178.5t-193 -105t-229.5 -34.5q-123 0 -235.5 36.5t-199 109t-137.5 179.5t-51 248v78q0 102 8 170.5t32 121t67 97.5t114 99q23 17 48 34.5
t47 38.5t39.5 46.5t26.5 57.5q-28 -17 -68.5 -23.5t-84.5 -6.5q-37 0 -85 7t-97 31.5t-93 71t-73 125.5q-12 34 -9 68t19 63.5t43.5 52t64.5 31.5q78 20 132 -11t75 -110q8 -29 27.5 -45.5t45.5 -16.5q32 0 52.5 17t31.5 46q20 56 67.5 91.5t110.5 35.5q39 0 73.5 -15
t60 -40.5t40.5 -60.5t15 -74l-1 -181q0 -49 -15.5 -89.5t-45 -80.5t-72.5 -83.5t-100 -98.5q-40 -40 -68.5 -74t-46.5 -67t-27 -69t-10 -81v-106q0 -78 20.5 -138.5t57.5 -102t88 -62.5t113 -21q57 0 106 15.5t85.5 51t57.5 92.5t21 140v984z" />
    <glyph glyph-name="khokhwaithai" unicode="&#xe04;" horiz-adv-x="1786" 
d="M1630 138q0 -35 -13.5 -64t-36.5 -50t-54 -32.5t-66 -11.5t-66 11.5t-54 32.5t-36.5 50t-13.5 64v870q0 47 -8.5 95.5t-27 94t-49 85.5t-75 70t-103 47t-134.5 17q-114 0 -190.5 -37.5t-123.5 -96.5t-67 -132t-20 -143v-226q67 97 147.5 154t191.5 75q30 5 59.5 0
t53.5 -19.5t41.5 -36.5t24.5 -52q7 -31 2.5 -60.5t-19 -54t-38.5 -42t-54 -23.5q-116 -14 -194.5 -58t-126 -115.5t-68 -167.5t-20.5 -214v-30q0 -35 -13 -64t-36 -50t-53.5 -32.5t-65.5 -11.5t-65.5 11.5t-53.5 32.5t-36 50t-13 64v833q0 94 14 186t47 174.5t88 153
t136.5 122t193 80.5t258.5 29q145 0 256.5 -29t193.5 -80.5t137 -122t88.5 -153t47.5 -174.5t14 -186v-833z" />
    <glyph glyph-name="khokhonthai" unicode="&#xe05;" horiz-adv-x="1802" 
d="M1647 138q0 -35 -13.5 -64t-36.5 -50t-54 -32.5t-66 -11.5t-66 11.5t-54 32.5t-36.5 50t-13.5 64v882q0 45 -7 96.5t-23 100.5t-43 89.5t-67 61.5l-209 -217q-24 -24 -58 -25t-60 25l-217 217q-40 -21 -65.5 -60.5t-40 -87.5t-20 -100t-5.5 -100v-238q67 97 147.5 154
t191.5 75q30 5 59.5 0t53.5 -19.5t41.5 -36.5t24.5 -52q7 -31 2.5 -60.5t-19 -54t-38.5 -42t-54 -23.5q-116 -14 -194.5 -58t-126 -115.5t-68 -167.5t-20.5 -214v-30q0 -35 -13 -64t-36 -50t-53.5 -32.5t-65.5 -11.5t-65.5 11.5t-53.5 32.5t-36 50t-13 64v880
q0 106 18 208.5t64.5 190.5t126.5 156t203 105q20 6 42 11t45.5 4t47.5 -11t47 -34l151 -158l140 158q22 24 46.5 34t49 11t48.5 -4t45 -11q125 -36 206 -104t128 -156t65 -191t18 -209v-880z" />
    <glyph glyph-name="khorakhangthai" unicode="&#xe06;" horiz-adv-x="1782" 
d="M1626 586q0 -138 -29 -253t-98 -197t-184 -127.5t-287 -45.5q-158 0 -279.5 53t-207.5 164v-46q0 -34 -13 -62.5t-35 -48.5t-52 -31.5t-64 -11.5t-64 11.5t-52 31.5t-35 48.5t-13 62.5v464q0 72 3 125t11 94t22.5 73.5t37 62t55 60t76.5 68.5q23 22 46.5 42t45.5 43.5
t39.5 51t28.5 64.5q-31 -15 -64.5 -24t-71.5 -9q-34 0 -82 8.5t-98 33t-95.5 70t-73.5 119.5q-12 34 -9 68t19 63.5t43.5 52t64.5 31.5q78 20 132 -11t75 -110q8 -29 27.5 -45.5t45.5 -16.5q32 0 52.5 17t31.5 46q20 56 67.5 91.5t110.5 35.5q39 0 73.5 -15t60 -40.5
t40.5 -60.5t15 -74v-177q0 -65 -20.5 -116.5t-54.5 -96t-77.5 -84.5t-89.5 -80q-41 -35 -68.5 -63.5t-44 -60.5t-23.5 -74t-7 -105q0 -75 30.5 -146t87 -125.5t136.5 -88t180 -33.5q66 0 120.5 21t93 59t60 92.5t21.5 122.5v982q0 35 13.5 64.5t36.5 50.5t54 33t66 12
t66 -12t54 -33t36.5 -50.5t13.5 -64.5v-953z" />
    <glyph glyph-name="ngonguthai" unicode="&#xe07;" horiz-adv-x="1323" 
d="M1167 381q0 -112 -34 -192t-92.5 -131t-137.5 -75t-170 -24q-90 0 -158 23t-119 65t-87 101t-62 131l-201 551q-12 32 -9 63t17.5 58t39 48t57.5 32q31 12 63 11.5t60 -12t50 -34t34 -55.5l233 -630q13 -34 35.5 -49.5t50.5 -15.5q44 0 69 24t25 58v1089h-133
q-27 0 -49.5 10.5t-38 28t-24.5 41.5t-9 51t9 51t24.5 41.5t38 28t49.5 10.5h348q27 0 49.5 -10.5t38 -28t24.5 -41.5t9 -51v-1167z" />
    <glyph glyph-name="chochanthai" unicode="&#xe08;" horiz-adv-x="1622" 
d="M893 352q38 89 79.5 190t76 200.5t57 192.5t24.5 167q4 164 -82.5 246t-256.5 82q-119 0 -193 -46.5t-112 -150.5q-15 -33 -43.5 -54t-62 -30t-69 -5.5t-65.5 19.5q-32 17 -53.5 42.5t-31.5 55.5t-7 62.5t21 64.5q86 154 249 239t399 85q78 0 158 -11.5t154.5 -38
t139.5 -70t113 -108.5t74.5 -153.5t24.5 -204.5q-2 -98 -30.5 -215.5t-73.5 -243.5t-102 -256.5t-115 -254.5q-35 -81 -107.5 -128.5t-167.5 -47.5q-98 0 -171.5 45.5t-104.5 133.5l-209 586h-123q-28 0 -50.5 10.5t-38.5 28.5t-25 42t-9 52t9 52.5t25 42.5t38.5 28.5
t50.5 10.5h308q28 0 46.5 -9t31 -25t21.5 -37t18 -46z" />
    <glyph glyph-name="chochingthai" unicode="&#xe09;" horiz-adv-x="1769" 
d="M156 800q0 35 13 64t36 50t53.5 32.5t65.5 11.5t65.5 -11.5t53.5 -32.5t36 -50t13 -64v-222q0 -69 22 -126t63 -97.5t99.5 -62.5t130.5 -22q118 0 206 37.5t146 104t86.5 157.5t28.5 197v250q0 72 -19 143.5t-66 129t-126 93t-199 35.5q-87 0 -150.5 -17t-109 -45.5
t-74.5 -65.5t-45 -76q-15 -32 -40 -54.5t-56 -33.5t-65 -9.5t-67 16.5q-32 15 -54.5 40.5t-33.5 56t-10 64t16 65.5q36 76 95 141.5t144 113.5t197 75.5t253 27.5q149 0 263 -28t197.5 -78t139 -119t89 -150.5t47.5 -172.5t14 -185v-848q0 -35 -13 -63.5t-35.5 -49t-53 -32
t-64.5 -11.5q-35 0 -65 11.5t-52.5 32t-35.5 49t-13 63.5v53q-90 -120 -216.5 -174.5t-299.5 -54.5q-177 0 -294 47.5t-187.5 133.5t-99.5 206t-29 264v190z" />
    <glyph glyph-name="chochangthai" unicode="&#xe0a;" horiz-adv-x="1581" 
d="M870 941q-24 3 -45 14t-37 28t-25 39.5t-9 46.5t8.5 46t22.5 39t33.5 29t42.5 16q62 11 107 40t75.5 74.5t47.5 109t23 143.5q6 37 24 65t45 46t59.5 25t66.5 1q36 -6 64 -22.5t46.5 -41.5t26 -57.5t1.5 -70.5q-11 -69 -30.5 -134.5t-52.5 -122t-80.5 -102t-112.5 -75.5
q59 -18 101 -46.5t69.5 -63.5t43.5 -74t24 -78.5t10 -77t2 -69.5v-136q0 -98 -24 -179t-66.5 -144.5t-101 -110.5t-127.5 -78t-146 -46t-157 -15q-123 0 -238 36.5t-204.5 109t-143 179.5t-53.5 248v136q0 64 3.5 112t11 85.5t20.5 68t31.5 59.5t43.5 59.5t58 69.5
q24 31 43.5 56.5t33.5 48.5t23 46.5t14 49.5q7 50 -20.5 82.5t-77.5 32.5q-35 0 -68.5 -5.5t-76.5 -19.5q-25 -6 -49.5 -3.5t-45 13.5t-36.5 29.5t-23 42.5t-4.5 48t13.5 44.5t29 36.5t42 25q41 15 81 25.5t75 17t63 9.5t45 3q95 0 172.5 -22.5t130 -68.5t77 -115t13.5 -163
q-6 -46 -22 -87t-43 -85.5t-65 -97.5t-87 -123q-26 -37 -39.5 -66.5t-19.5 -58t-7.5 -58.5t-2.5 -67v-110q0 -78 23.5 -138.5t65 -102t96.5 -62.5t118 -21q60 0 112 15.5t90.5 51t61 92.5t22.5 140v111q0 77 -14 127.5t-41.5 81t-67.5 45t-92 19.5z" />
    <glyph glyph-name="sosothai" unicode="&#xe0b;" horiz-adv-x="1683" 
d="M61 1480q-11 34 -8 68.5t19 64.5t43.5 51.5t64.5 30.5q77 18 132 -14t75 -107q8 -29 32 -46t50 -17q28 0 46 17.5t29 46.5q19 56 67.5 91t111.5 35q39 0 73 -13.5t59 -38t39.5 -60t14.5 -78.5q0 -111 -11.5 -187t-36 -134t-62.5 -105.5t-90 -101.5q-39 -40 -60.5 -89
t-32 -102t-12.5 -107t-2 -103q0 -78 23.5 -138.5t64.5 -102t95 -62.5t116 -21q60 0 112.5 15.5t91 51t61 92.5t22.5 140v111q0 72 -14 121.5t-41.5 81.5t-67.5 48.5t-92 21.5q-24 3 -45 14t-37 28t-25 39.5t-9 46.5t8.5 46t22.5 39t33.5 29t42.5 16q62 11 107 40t75.5 74.5
t47.5 109t23 143.5q6 37 24 65t45 46t59.5 25t66.5 1q36 -6 64 -22.5t46.5 -41.5t26 -57.5t1.5 -70.5q-11 -69 -30.5 -134.5t-52.5 -122t-80.5 -102t-112.5 -75.5q59 -18 101 -46.5t70.5 -63.5t45 -74t24.5 -78.5t10.5 -77t2.5 -69.5v-136q0 -147 -53 -255t-140.5 -178.5
t-200.5 -105t-233 -34.5q-123 0 -238 36.5t-204.5 109t-143 179.5t-53.5 248q0 100 3 179.5t20 147t54.5 128t106.5 123.5q14 14 32.5 34.5t37 45.5t34 51.5t23.5 52.5q-69 -49 -163 -49q-34 0 -82.5 8.5t-98.5 34t-95 71.5t-73 121z" />
    <glyph glyph-name="chochoethai" unicode="&#xe0c;" horiz-adv-x="2650" 
d="M184 905q0 44 -9.5 91t-37.5 88q-25 36 -43 57.5t-26 41t-4.5 42t21.5 61.5q38 84 99.5 162t149 137.5t204 95t265.5 35.5q140 0 250 -27.5t192 -76t139 -115.5t92.5 -145.5t51.5 -166t16 -177.5v-271q0 -103 25 -190.5t73 -151.5t118 -100.5t161 -36.5q54 0 97 15.5
t73 51t46.5 92.5t16.5 140v983q0 35 13.5 64.5t36.5 50.5t54 33t66 12t66 -12t54 -33t36.5 -50.5t13.5 -64.5v-954q0 -149 -26 -266t-88.5 -197t-165.5 -122t-256 -42q-71 0 -133 16.5t-115.5 46t-98 70t-79.5 88.5v-46q0 -34 -13 -62.5t-35 -48.5t-52 -31.5t-64 -11.5
t-64 11.5t-52 31.5t-35 48.5t-13 62.5v906q0 69 -20 138t-67 124.5t-123.5 90.5t-190.5 37q-91 1 -161 -19.5t-120 -54.5t-80 -76t-41 -84q62 -43 90.5 -121t28.5 -174v-627h73q28 0 51.5 -10.5t40.5 -29.5t26 -44t9 -53q0 -29 -9 -53.5t-26 -43.5t-40.5 -29.5t-51.5 -10.5
h-272q-29 0 -53.5 10.5t-43.5 29.5t-29.5 43.5t-10.5 53.5v768z" />
    <glyph glyph-name="yoyingthai" unicode="&#xe0d;" horiz-adv-x="2650" 
d="M1544 688q0 -86 16.5 -144.5t46.5 -94.5t73.5 -52t97.5 -16q90 0 160 38.5t118 105t73 157t25 195.5v663q0 35 13.5 64.5t36.5 50.5t54 33t66 12t66 -12t54 -33t36.5 -50.5t13.5 -64.5v-1192q0 -121 -12 -212.5t-32 -160.5t-45.5 -118t-53.5 -86l4 4q-51 -75 -115 -127.5
t-137.5 -85.5t-155 -47.5t-165.5 -14.5q-92 0 -178.5 19t-161.5 58t-135 97.5t-98 137.5q-17 35 -19 66t8.5 57t32 46.5t50.5 34.5t60.5 15t60.5 -8.5t52.5 -30t37.5 -49.5q41 -83 117.5 -125.5t168.5 -42.5q111 0 185 38t118.5 98.5t63 135t18.5 146.5v106
q-36 -45 -81.5 -85.5t-99 -71.5t-114.5 -49.5t-127 -18.5q-154 0 -257 43t-165.5 125.5t-88.5 203t-26 275.5v295q0 72 -20 143t-67 128t-123.5 92.5t-190.5 37.5q-91 1 -161 -19.5t-120 -55t-80 -78.5t-41 -88q62 -44 90.5 -124t28.5 -180v-598h73q28 0 51.5 -10.5
t40.5 -29.5t26 -44t9 -53q0 -29 -9 -53.5t-26 -43.5t-40.5 -29.5t-51.5 -10.5h-272q-29 0 -53.5 10.5t-43.5 29.5t-29.5 43.5t-10.5 53.5v768q0 44 -9.5 91t-37.5 88q-25 36 -43 57.5t-26 41t-4.5 42t21.5 61.5q38 84 99.5 162t149 137.5t204 95t265.5 35.5q140 0 250 -27.5
t192 -76t139 -115.5t92.5 -145.5t51.5 -166t16 -177.5v-320z" />
    <glyph glyph-name="dochadathai" unicode="&#xe0e;" horiz-adv-x="1839" 
d="M1684 -390q0 -43 -16.5 -81t-45 -66t-67 -44.5t-81.5 -16.5q-46 0 -85.5 18t-68.5 50q-26 29 -61.5 54.5t-83.5 44.5t-110 30t-140 11q-50 0 -96 -13.5t-90 -37.5t-86.5 -56.5t-83.5 -70.5q-19 -18 -43 -25t-48.5 -4.5t-47.5 14t-40 30.5q-18 21 -24.5 45.5t-3.5 49
t14 47.5t28 42q51 57 114 104t131 80.5t139 51.5t137 18q78 0 142 -9t115.5 -23.5t91 -33t69.5 -36.5v1257q0 71 -22 140t-73 124t-135 89.5t-208 36.5q-103 1 -180 -22.5t-130.5 -59.5t-84 -77t-39.5 -75q53 -46 86 -123.5t33 -167.5v-768q0 -29 -10.5 -53.5t-29.5 -43.5
t-44 -29.5t-53 -10.5h-272q-29 0 -52 10.5t-40 29.5t-26 43.5t-9 53.5q0 28 9 53t26 44t40 29.5t52 10.5h73v635q0 44 -9.5 89t-37.5 86q-25 36 -43 57.5t-26 41t-4.5 42t21.5 61.5q38 84 100.5 162t154 137.5t214.5 95t282 35.5q148 0 263.5 -27t202 -75.5t146 -114.5
t96.5 -144.5t53.5 -165.5t16.5 -177v-1402z" />
    <glyph glyph-name="topatakthai" unicode="&#xe0f;" horiz-adv-x="1839" 
d="M1684 -405q0 -40 -15.5 -75t-41.5 -61.5t-61.5 -41.5t-75.5 -15q-57 0 -102.5 29t-69.5 77q-11 22 -25.5 42t-33 35.5t-41.5 24.5t-51 9t-51 -9t-41 -24.5t-31.5 -35.5t-22.5 -42q-19 -47 -61.5 -76.5t-96.5 -29.5t-96.5 30.5t-60.5 78.5q-7 21 -18.5 41t-28 36t-39 25.5
t-51.5 9.5q-26 0 -46.5 -9.5t-35.5 -26t-26 -38t-17 -45.5q-7 -27 -23.5 -48.5t-39 -35t-49.5 -17.5t-54 3t-48 23.5t-34 39t-17 49t2 54.5q18 80 56 138.5t88 96.5t107 56t113 18q99 0 176 -40.5t127 -114.5q28 35 62 62t71 45t74 27t71 9q75 0 127.5 -22t89.5 -56v1249
q0 71 -22 140t-73 124t-135 89.5t-208 36.5q-103 1 -180 -22.5t-130.5 -59.5t-84 -77t-39.5 -75q53 -46 86 -123.5t33 -167.5v-768q0 -29 -10.5 -53.5t-29.5 -43.5t-44 -29.5t-53 -10.5h-272q-29 0 -52 10.5t-40 29.5t-26 43.5t-9 53.5q0 28 9 53t26 44t40 29.5t52 10.5h73
v635q0 44 -9.5 89t-37.5 86q-25 36 -43 57.5t-26 41t-4.5 42t21.5 61.5q38 84 100.5 162t154 137.5t214.5 95t282 35.5q148 0 263.5 -27t202 -75.5t146 -114.5t96.5 -144.5t53.5 -165.5t16.5 -177v-1417z" />
    <glyph glyph-name="thothanthai" unicode="&#xe10;" horiz-adv-x="1614" 
d="M638 -527q-9 44 -33 70t-59 26t-58.5 -22.5t-35.5 -60.5q-8 -26 -24 -45t-38 -31t-48 -15.5t-53 3.5q-27 6 -47.5 21t-33 35.5t-17 44.5t1.5 50q19 85 58 136.5t86 79t97.5 36t92.5 7.5q60 -3 112 -26t82 -62q12 17 28.5 33t37 28t44 19.5t48.5 7.5q48 0 86.5 -23
t60.5 -58q0 33 14 63t38 52t56 35t68 13t67.5 -11.5t55.5 -31.5t37.5 -48t13.5 -61v-191q0 -33 -13 -61.5t-36 -48.5t-54 -31.5t-67 -11.5q-28 0 -54 8t-48 22t-38.5 33.5t-25.5 42.5q-13 33 -35 51t-54 18q-38 0 -64 -27.5t-37 -70.5q-9 -34 -38 -55.5t-67 -21.5
q-39 0 -69 22t-38 57zM1487 1126q-2 -98 -30.5 -215.5t-73.5 -243.5t-102 -256.5t-115 -254.5q-35 -81 -107.5 -128.5t-167.5 -47.5q-98 0 -171.5 45.5t-104.5 133.5l-209 586h-123q-28 0 -50.5 10.5t-38.5 28.5t-25 42t-9 52t9 52.5t25 42.5t38.5 28.5t50.5 10.5h308
q28 0 46.5 -9t31 -25t21.5 -37t18 -46l185 -543q38 89 79.5 190t76 200.5t57 192.5t24.5 167q4 164 -82.5 246t-256.5 82q-119 0 -194.5 -46.5t-110.5 -150.5q-12 -35 -40 -56t-62.5 -29.5t-71 -4.5t-66.5 20q-32 17 -53.5 42t-31 55t-6.5 63t20 65q85 160 247.5 244
t400.5 84q72 0 143.5 -9.5t139.5 -31.5q51 10 81 42.5t44 73.5q14 33 41 53.5t59.5 29t68 4t66.5 -22.5q31 -17 52.5 -44.5t31 -59.5t5.5 -66t-23 -65q-49 -82 -152 -121q53 -65 81.5 -157t25.5 -216z" />
    <glyph glyph-name="thonangmonthothai" unicode="&#xe11;" horiz-adv-x="1782" 
d="M1626 138q0 -35 -13.5 -64t-36.5 -50t-54 -32.5t-66 -11.5t-66 11.5t-54 32.5t-36.5 50t-13.5 64v1107q0 32 -1 59t-5.5 46.5t-12.5 30t-22 10.5q-62 0 -192.5 -104.5t-323.5 -328.5q-34 -40 -60 -70.5t-45.5 -57.5t-33 -52.5t-22 -54.5t-12 -64t-3.5 -81v-440
q0 -35 -13.5 -64t-36.5 -50t-54 -32.5t-66 -11.5t-66 11.5t-54 32.5t-36.5 50t-13.5 64v407q0 63 1.5 111.5t7 87t17.5 71.5t32.5 66.5t51 70.5t74.5 84q52 55 90 93.5t62.5 67t38 51t18.5 46.5q-34 -24 -76 -36.5t-88 -12.5q-34 0 -82.5 8.5t-98.5 34t-95 71.5t-73 121
q-11 34 -8 68.5t19 64.5t43.5 51.5t64.5 30.5q77 18 132 -14t75 -107q8 -29 32 -46t50 -17q28 0 46 17.5t29 46.5q19 56 67.5 91t111.5 35q70 0 120.5 -41t62.5 -112q75 52 138.5 85t117 52.5t96 27t74.5 7.5q83 0 134 -26.5t79.5 -74.5t38.5 -116t10 -151v-1214z" />
    <glyph glyph-name="thophuthaothai" unicode="&#xe12;" horiz-adv-x="2720" 
d="M1614 737q0 -103 25 -190.5t73 -151.5t118 -100.5t161 -36.5q55 0 98.5 15.5t73.5 51t45.5 92.5t15.5 140v982q0 35 13.5 64.5t36.5 50.5t54 33t66 12t66 -12t54 -33t36.5 -50.5t13.5 -64.5v-953q0 -149 -26 -266t-88.5 -197t-165.5 -122t-256 -42q-71 0 -133 16.5
t-115.5 46t-98 70t-79.5 88.5v-46q0 -34 -13 -62.5t-35 -48.5t-52 -31.5t-64 -11.5t-64 11.5t-52 31.5t-35 48.5t-13 62.5v935q0 43 -3 89t-15 87.5t-35.5 75t-65.5 51.5l-213 -205q-12 -12 -28 -18t-32 -5.5t-31.5 6.5t-27.5 17l-217 209q-34 -20 -56 -55t-35 -77
t-18 -87.5t-5 -87.5v-620l261 309h-42q-27 0 -50 10t-40.5 27.5t-27.5 41t-10 50.5t10 50.5t27.5 41t40.5 27.5t50 10h303q31 0 58 -11.5t47.5 -31t32 -46t11.5 -57.5q0 -29 -8.5 -56t-25.5 -47l-617 -728q-28 -30 -66.5 -47.5t-83.5 -17.5q-43 0 -80.5 13.5t-65.5 38.5
t-44 60t-16 78v854q0 106 15.5 208.5t59 190.5t121 156t200.5 105q20 6 42 11t45.5 4t47.5 -11t47 -34l151 -155l140 155q22 24 46.5 34t49 11t48.5 -4t45 -11q125 -36 203.5 -104t122 -156t59 -191t15.5 -209v-281z" />
    <glyph glyph-name="nonenthai" unicode="&#xe13;" horiz-adv-x="2650" 
d="M1544 557q0 -83 16.5 -140t46.5 -92.5t73.5 -51t97.5 -15.5q90 0 160 36.5t118 100.5t73 151.5t25 190.5v802q0 35 13.5 64.5t36.5 50.5t54 33t66 12t66 -12t54 -33t36.5 -50.5t13.5 -64.5v-1403q0 -34 -13 -62.5t-35.5 -49.5t-53 -32.5t-64.5 -11.5q-35 0 -65 11.5
t-52 32.5t-35 49.5t-13 62.5v44q-36 -48 -80.5 -88.5t-97.5 -70t-114 -46t-130 -16.5q-154 0 -257 42t-165.5 122t-88.5 197t-26 266v454q0 69 -20 138t-67 124.5t-123.5 90.5t-190.5 37q-91 1 -161 -19t-120 -53.5t-80 -76t-41 -85.5q62 -43 90.5 -121t28.5 -174v-627h73
q28 0 51.5 -10.5t40.5 -29.5t26 -44t9 -53q0 -29 -9 -53.5t-26 -43.5t-40.5 -29.5t-51.5 -10.5h-272q-29 0 -53.5 10.5t-43.5 29.5t-29.5 43.5t-10.5 53.5v768q0 44 -9.5 91t-37.5 88q-25 36 -43 57.5t-26 41t-4.5 42t21.5 61.5q38 84 99.5 162t149 137.5t204 95t265.5 35.5
q140 0 250 -27.5t192 -76t139 -115.5t92.5 -145.5t51.5 -166t16 -177.5v-451z" />
    <glyph glyph-name="dodekthai" unicode="&#xe14;" horiz-adv-x="1802" 
d="M1647 138q0 -35 -13.5 -64t-36.5 -50t-54 -32.5t-66 -11.5t-66 11.5t-54 32.5t-36.5 50t-13.5 64v898q0 69 -17.5 139.5t-62.5 127t-124 92t-202 35.5q-125 0 -204 -35.5t-125 -92t-63 -127t-17 -139.5v-587l271 309h-42q-27 0 -50 10t-40.5 27.5t-27.5 41t-10 50.5
t10 50.5t27.5 41t40.5 27.5t50 10h303q31 0 58 -11.5t47.5 -31t32 -46t11.5 -57.5q0 -29 -8.5 -56t-25.5 -47l-627 -728q-27 -31 -66 -48t-84 -17q-43 0 -80.5 13.5t-65.5 38.5t-44 60t-16 78v840q0 90 14 177.5t47 167t88.5 146.5t138.5 116.5t195.5 77t261.5 27.5
q147 0 259 -27.5t195 -77t139 -116.5t90 -146.5t48.5 -167t14.5 -177.5v-866z" />
    <glyph glyph-name="totaothai" unicode="&#xe15;" horiz-adv-x="1815" 
d="M1659 138q0 -35 -13 -64t-36 -50t-53.5 -32.5t-65.5 -11.5t-65.5 11.5t-53.5 32.5t-36 50t-13 64v908q0 42 -9 91t-27.5 95.5t-46 85.5t-64.5 60l-209 -205q-12 -11 -27.5 -17t-31.5 -6.5t-32 5.5t-28 18l-217 209q-42 -20 -68.5 -57.5t-42.5 -84t-22 -97.5t-6 -97v-597
l275 309h-42q-27 0 -50 10t-40.5 27.5t-27.5 41t-10 50.5t10 50.5t27.5 41t40.5 27.5t50 10h303q31 0 58 -11.5t47.5 -31t32 -46t11.5 -57.5q0 -29 -8.5 -56t-25.5 -47l-631 -728q-27 -31 -66 -48t-84 -17q-43 0 -80.5 13.5t-65.5 38.5t-44 60t-16 78v854q0 106 19.5 208.5
t67.5 190.5t129 156t204 105q20 6 42 11t45 3.5t47 -11t48 -33.5l151 -151l140 151q22 24 46.5 34t49.5 11t48.5 -4t44.5 -11q125 -36 206.5 -104t129 -156t66.5 -191t19 -209v-880z" />
    <glyph glyph-name="thothungthai" unicode="&#xe16;" horiz-adv-x="1737" 
d="M1581 138q0 -35 -13 -64t-36 -50t-53.5 -32.5t-65.5 -11.5t-65.5 11.5t-53.5 32.5t-36 50t-13 64v902q0 71 -20 140t-68.5 124t-131 89.5t-206.5 36.5q-104 1 -179 -23t-125 -60t-77.5 -77.5t-36.5 -73.5q31 -21 53.5 -52t37 -68.5t21.5 -81t7 -89.5v-631h73
q28 0 51.5 -10.5t40.5 -29.5t26 -44t9 -53q0 -29 -9 -53.5t-26 -43.5t-40.5 -29.5t-51.5 -10.5h-272q-29 0 -53.5 10.5t-43.5 29.5t-29.5 43.5t-10.5 53.5v772q0 44 -9.5 89t-37.5 86q-25 36 -43 57.5t-26 41t-4.5 42t21.5 61.5q38 84 96 162t145 137.5t207.5 95t285.5 35.5
q148 0 262.5 -27t199 -75.5t142 -114.5t93 -144.5t50.5 -165.5t15 -177v-874z" />
    <glyph glyph-name="thothahanthai" unicode="&#xe17;" horiz-adv-x="1769" 
d="M496 138q0 -35 -13.5 -64t-36.5 -50t-54 -32.5t-66 -11.5t-66 11.5t-54 32.5t-36.5 50t-13.5 64v1422q0 34 13 63t35 49.5t52 32t65 11.5q34 0 64.5 -11.5t53 -32t35.5 -49.5t13 -63v-85q89 119 216.5 182t300.5 63q177 0 294 -47.5t187.5 -133.5t99.5 -206t29 -264v-931
q0 -35 -13 -64t-36 -50t-53.5 -32.5t-65.5 -11.5t-65.5 11.5t-53.5 32.5t-36 50t-13 64v964q0 69 -22 125.5t-63.5 97t-99.5 62.5t-130 22q-119 0 -206.5 -37.5t-145.5 -104t-86.5 -157.5t-28.5 -197v-775z" />
    <glyph glyph-name="thothongthai" unicode="&#xe18;" horiz-adv-x="1679" 
d="M1459 1360q12 -34 13 -67.5t-9.5 -63t-32.5 -53t-56 -37.5q-33 -14 -68 -15.5t-66.5 10t-57.5 35.5t-40 63q-38 104 -119 153t-216 49q-63 0 -120 -5.5t-100.5 -19.5t-69 -37.5t-25.5 -60.5q0 -26 25.5 -50.5t65.5 -47.5t89.5 -43t98 -36.5t91 -29t68.5 -19.5
q98 -30 181 -59t150.5 -63t119 -76.5t86 -98.5t52 -128.5t17.5 -167.5q0 -141 -58 -241t-155 -163t-222.5 -92t-260.5 -29q-137 0 -261 29.5t-218 93t-149.5 163t-55.5 239.5v214q0 35 13 64t36 50t53.5 32.5t65.5 11.5t65.5 -11.5t53.5 -32.5t36 -50t13 -64v-214
q0 -68 32 -114t82 -74.5t112 -41t122 -12.5q55 0 117 10t114 37t86.5 74t34.5 121q0 40 -6 72.5t-22.5 60t-47.5 53t-81 50t-122.5 51t-171.5 57.5q-120 37 -227.5 73t-188 85.5t-126.5 121t-43 178.5q2 77 29.5 138t73.5 107.5t107 79t131 53.5t145 30.5t149 9.5
q121 0 228.5 -20.5t194.5 -63.5t149.5 -109.5t95.5 -158.5z" />
    <glyph glyph-name="nonuthai" unicode="&#xe19;" horiz-adv-x="1769" 
d="M1274 1542q0 35 13.5 64t36.5 50t54 32.5t66 11.5t66 -11.5t54 -32.5t36.5 -50t13.5 -64v-1422q0 -35 -13 -63.5t-35 -49t-52.5 -32t-64.5 -11.5q-35 0 -65 11.5t-52.5 32t-35.5 49t-13 63.5v85q-89 -119 -217 -182t-300 -63q-177 0 -294 47.5t-187.5 133.5t-99.5 206
t-29 264v931q0 35 13 64t36 50t53.5 32.5t65.5 11.5t65.5 -11.5t53.5 -32.5t36 -50t13 -64v-964q0 -69 19.5 -125.5t59 -97t98.5 -62.5t138 -22q118 0 206 37.5t146 104t86.5 157.5t28.5 197v775z" />
    <glyph glyph-name="bobaimaithai" unicode="&#xe1a;" horiz-adv-x="1769" 
d="M1614 700q0 -94 -13.5 -185t-46 -173t-87 -151.5t-135.5 -120t-191.5 -79t-255.5 -28.5q-146 0 -257 29t-192 80.5t-135 122t-86 153.5t-45.5 175t-13.5 186v833q0 35 13 64t36 50t53.5 32.5t65.5 11.5t65.5 -11.5t53.5 -32.5t36 -50t13 -64v-866q0 -72 19 -146
t64 -133.5t120.5 -97t189.5 -37.5t189 37.5t119.5 97t62.5 133.5t18 146v866q0 35 13.5 64t36.5 50t54 32.5t66 11.5t66 -11.5t54 -32.5t36.5 -50t13.5 -64v-842z" />
    <glyph glyph-name="poplathai" unicode="&#xe1b;" horiz-adv-x="1769" 
d="M1614 700q0 -94 -13.5 -185t-46 -173t-87 -151.5t-135.5 -120t-191.5 -79t-255.5 -28.5q-146 0 -257 29t-192 80.5t-135 122t-86 153.5t-45.5 175t-13.5 186v833q0 35 13 64t36 50t53.5 32.5t65.5 11.5t65.5 -11.5t53.5 -32.5t36 -50t13 -64v-866q0 -72 19 -146
t64 -133.5t120.5 -97t189.5 -37.5t189 37.5t119.5 97t62.5 133.5t18 146v1599q0 35 13.5 64t36.5 50t54 32.5t66 11.5t66 -11.5t54 -32.5t36.5 -50t13.5 -64v-1575z" />
    <glyph glyph-name="phophungthai" unicode="&#xe1c;" horiz-adv-x="1896" 
d="M1741 475q0 -131 -30.5 -226.5t-86 -158t-134 -93t-175.5 -30.5q-121 0 -215.5 50t-153.5 143q-46 -99 -134 -146t-218 -47q-100 0 -181 30.5t-138 93t-88 158t-31 226.5v1067q0 28 10.5 53t29.5 44t43.5 29.5t53.5 10.5h313q28 0 51.5 -10.5t40.5 -29.5t26 -44t9 -53
q0 -29 -9 -53.5t-26 -43.5t-40.5 -29.5t-51.5 -10.5h-114v-877q0 -150 36 -214t107 -64q54 0 83 28t42.5 77t15.5 114.5t2 140.5v129q0 35 13 64t36 50t53.5 32.5t65.5 11.5t65.5 -11.5t53.5 -32.5t36 -50t13 -64v-129q0 -75 4 -140.5t20.5 -114.5t48 -77t87.5 -28
q34 0 58.5 15.5t40.5 48.5t24 86t8 128v1013q0 35 13 64t36 50t53.5 32.5t65.5 11.5t65.5 -11.5t53.5 -32.5t36 -50t13 -64v-1066z" />
    <glyph glyph-name="fofathai" unicode="&#xe1d;" horiz-adv-x="1896" 
d="M1741 475q0 -131 -30.5 -226.5t-86 -158t-134 -93t-175.5 -30.5q-121 0 -215.5 50t-153.5 143q-46 -99 -134 -146t-218 -47q-100 0 -181 30.5t-138 93t-88 158t-31 226.5v1067q0 28 10.5 53t29.5 44t43.5 29.5t53.5 10.5h313q28 0 51.5 -10.5t40.5 -29.5t26 -44t9 -53
q0 -29 -9 -53.5t-26 -43.5t-40.5 -29.5t-51.5 -10.5h-114v-877q0 -150 36 -214t107 -64q54 0 83 28t42.5 77t15.5 114.5t2 140.5v129q0 35 13 64t36 50t53.5 32.5t65.5 11.5t65.5 -11.5t53.5 -32.5t36 -50t13 -64v-129q0 -75 4 -140.5t20.5 -114.5t48 -77t87.5 -28
q34 0 58.5 15.5t40.5 48.5t24 86t8 128v1747q0 35 13 64t36 50t53.5 32.5t65.5 11.5t65.5 -11.5t53.5 -32.5t36 -50t13 -64v-1800z" />
    <glyph glyph-name="phophanthai" unicode="&#xe1e;" horiz-adv-x="2224" 
d="M1561 487l218 1077q7 37 27.5 65t49 45t63 22.5t70.5 -1.5t64.5 -26.5t47 -48t24.5 -62.5t-3 -70l-337 -1328q-10 -38 -30.5 -71t-49.5 -57t-65.5 -38t-78.5 -14q-40 0 -76 13t-65 35.5t-49.5 54t-28.5 68.5l-236 1041l-224 -1032q-9 -39 -29.5 -72t-50 -57t-66.5 -37.5
t-79 -13.5q-40 0 -75.5 13t-64.5 36t-50 54t-30 68l-339 1337q-9 36 -3 70t24.5 62.5t47 48t64.5 26.5t71 1.5t64.5 -22.5t50 -45t28.5 -65l223 -1089l226 1055q8 36 28 67t49 53.5t65 35.5t76 13q41 0 77.5 -13.5t65.5 -37.5t49 -56.5t29 -70.5z" />
    <glyph glyph-name="fofanthai" unicode="&#xe1f;" horiz-adv-x="2224" 
d="M1561 487l344 1810q7 37 27.5 65t49 45t63 22.5t70.5 -1.5t64.5 -26.5t47 -48t24.5 -62.5t-3 -70l-463 -2061q-10 -38 -30.5 -71t-49.5 -57t-65.5 -38t-78.5 -14q-40 0 -76 13t-65 35.5t-49.5 54t-28.5 68.5l-236 1041l-224 -1032q-9 -39 -29.5 -72t-50 -57t-66.5 -37.5
t-79 -13.5q-40 0 -75.5 13t-64.5 36t-50 54t-30 68l-339 1337q-9 36 -3 70t24.5 62.5t47 48t64.5 26.5t71 1.5t64.5 -22.5t50 -45t28.5 -65l223 -1089l226 1055q8 36 28 67t49 53.5t65 35.5t76 13q41 0 77.5 -13.5t65.5 -37.5t49 -56.5t29 -70.5z" />
    <glyph glyph-name="phosamphaothai" unicode="&#xe20;" horiz-adv-x="1839" 
d="M1683 138q0 -35 -13.5 -64t-36.5 -50t-54 -32.5t-66 -11.5t-66 11.5t-54 32.5t-36.5 50t-13.5 64v902q0 71 -22 140t-73 124t-135 89.5t-208 36.5q-103 1 -180 -22.5t-130.5 -59.5t-84 -77t-39.5 -75q53 -46 86 -123.5t33 -167.5v-768q0 -29 -10.5 -53.5t-29.5 -43.5
t-44 -29.5t-53 -10.5h-272q-29 0 -52 10.5t-40 29.5t-26 43.5t-9 53.5q0 28 9 53t26 44t40 29.5t52 10.5h73v635q0 44 -10 89t-38 86q-25 36 -43 57.5t-26 41t-4.5 42t21.5 61.5q38 84 100.5 162t154 137.5t214.5 95t282 35.5q148 0 263.5 -27t202 -75.5t146 -114.5
t96.5 -144.5t53.5 -165.5t16.5 -177v-874z" />
    <glyph glyph-name="momathai" unicode="&#xe21;" horiz-adv-x="1769" 
d="M496 767q0 -106 28.5 -197t86.5 -157.5t145.5 -104t206.5 -37.5q79 0 138 22t98.5 62.5t59 97t19.5 125.5v964q0 35 13 64t36 50t53.5 32.5t65.5 11.5t65.5 -11.5t53.5 -32.5t36 -50t13 -64v-931q0 -144 -29 -264t-99.5 -206t-187.5 -133.5t-294 -47.5q-173 0 -300.5 63
t-216.5 182v-84q0 -35 -13 -63.5t-35.5 -49t-53 -32t-64.5 -11.5q-35 0 -65 11.5t-52 32t-35 49t-13 63.5v1421q0 35 13.5 64t36.5 50t54 32.5t66 11.5t66 -11.5t54 -32.5t36.5 -50t13.5 -64v-775z" />
    <glyph glyph-name="yoyakthai" unicode="&#xe22;" horiz-adv-x="1724" 
d="M1569 590q0 -154 -56.5 -271.5t-154 -197.5t-227 -121t-275.5 -41q-91 0 -180.5 15t-170.5 46t-150 77.5t-120 110t-79.5 143.5t-28.5 177q0 64 8.5 121.5t30 106t58 87.5t91.5 66q-58 34 -94 77t-56 90.5t-27 96t-7 93.5q0 82 21.5 144.5t58 108t85 76.5t101.5 49.5
t108 26.5t105 8h141q30 0 54.5 -11t42 -30.5t27 -45.5t9.5 -56t-9.5 -56t-27 -45.5t-42 -30.5t-54.5 -11h-71q-23 0 -57.5 -3.5t-66.5 -18.5t-54.5 -44.5t-22.5 -81.5q0 -57 17.5 -94t47.5 -58.5t70 -30.5t86 -9h52q29 0 53.5 -11t42 -30.5t27 -45.5t9.5 -55t-9.5 -55
t-27 -45t-42 -30t-53.5 -11h-52q-49 0 -89.5 -9.5t-70 -34.5t-45.5 -70t-16 -115q0 -75 31 -130.5t83.5 -92t120.5 -54.5t142 -18q81 0 150.5 21t119.5 68.5t78.5 124t28.5 187.5v895q0 35 13 64t36 50t53.5 32.5t65.5 11.5t65.5 -11.5t53.5 -32.5t36 -50t13 -64v-952z" />
    <glyph glyph-name="roruathai" unicode="&#xe23;" horiz-adv-x="1491" 
d="M1318 1354q10 -33 5.5 -66.5t-20.5 -61.5t-42.5 -48.5t-59.5 -29.5q-37 -9 -71 -4.5t-62 21t-48 43t-29 60.5q-30 94 -94.5 132t-159.5 38q-43 0 -88.5 -10t-83 -31.5t-62 -57t-24.5 -86.5q0 -40 21 -70t65 -56.5t111.5 -53.5t159.5 -61q110 -40 195 -77.5t147 -75.5
t104 -79t67.5 -88t36.5 -101.5t11 -119.5q0 -140 -50 -236t-137.5 -155.5t-207 -86t-257.5 -26.5q-113 0 -213 22t-182 70t-141.5 124t-91.5 184q-9 33 -4.5 66.5t20 61.5t41.5 48.5t59 29.5q37 9 71 4.5t62 -21t48 -43t29 -60.5q30 -108 108.5 -155.5t210.5 -47.5
q46 0 98 9t95.5 33.5t72.5 66.5t29 108q0 51 -21 86.5t-64.5 65.5t-110 58.5t-156.5 63.5q-81 32 -154.5 61.5t-137 61t-115.5 68.5t-88.5 82.5t-57 103t-21.5 131.5q-1 81 22.5 147t65 117t97.5 89t121 62t135.5 36t140.5 12q113 0 210.5 -17.5t175.5 -59t133.5 -110
t85.5 -171.5z" />
    <glyph glyph-name="ruthai" unicode="&#xe24;" horiz-adv-x="1737" 
d="M1581 -407q0 -35 -13 -64t-36 -50t-53.5 -32.5t-65.5 -11.5t-65.5 11.5t-53.5 32.5t-36 50t-13 64v1447q0 71 -20 140t-68.5 124t-131 89.5t-206.5 36.5q-104 1 -179 -23t-125 -60t-77.5 -77.5t-36.5 -73.5q31 -21 53.5 -52t37 -68.5t21.5 -81t7 -89.5v-631h73
q28 0 51.5 -10.5t40.5 -29.5t26 -44t9 -53q0 -29 -9 -53.5t-26 -43.5t-40.5 -29.5t-51.5 -10.5h-272q-29 0 -53.5 10.5t-43.5 29.5t-29.5 43.5t-10.5 53.5v772q0 44 -9.5 89t-37.5 86q-25 36 -43 57.5t-26 41t-4.5 42t21.5 61.5q38 84 96 162t145 137.5t207.5 95t285.5 35.5
q148 0 262.5 -27t199 -75.5t142 -114.5t93 -144.5t50.5 -165.5t15 -177v-1419z" />
    <glyph glyph-name="lolingthai" unicode="&#xe25;" horiz-adv-x="1729" 
d="M1573 138q0 -35 -13 -64t-36 -50t-53.5 -32.5t-65.5 -11.5t-65.5 11.5t-53.5 32.5t-36 50t-13 64v677q-31 -14 -68 -24t-76.5 -17.5t-81 -13.5t-81.5 -10q-88 -11 -173.5 -25.5t-153.5 -44.5t-110 -81.5t-42 -135.5q0 -73 36.5 -118t92.5 -68t121.5 -28.5t124.5 1.5
q28 5 53.5 0t46.5 -19t35.5 -37.5t20.5 -56.5q5 -27 -1.5 -52t-21.5 -45t-37.5 -35t-49.5 -21q-89 -21 -180 -21q-118 0 -224.5 26t-186.5 83.5t-127.5 149.5t-47.5 224q0 99 23.5 174t69 131t110.5 95t148.5 67.5t183.5 48.5t215 37q72 11 141 21.5t122 29.5t85.5 50
t32.5 84q0 81 -30.5 130t-79.5 74.5t-109.5 33.5t-120.5 8q-67 0 -125.5 -11t-105.5 -36t-81 -65.5t-52 -100.5q-9 -35 -30.5 -61.5t-50 -42.5t-62.5 -20.5t-68 4.5t-61 30t-43.5 49.5t-21.5 62t6 67.5q35 114 105 191.5t164.5 125t208.5 68.5t238 21q78 0 156.5 -9.5
t151.5 -32t136 -59.5t110 -92.5t74 -131.5t27 -175v-1074z" />
    <glyph glyph-name="luthai" unicode="&#xe26;" horiz-adv-x="1839" 
d="M1683 -407q0 -35 -13.5 -64t-36.5 -50t-54 -32.5t-66 -11.5t-66 11.5t-54 32.5t-36.5 50t-13.5 64v1447q0 71 -22 140t-73 124t-135 89.5t-208 36.5q-103 1 -180 -22.5t-130.5 -59.5t-84 -77t-39.5 -75q53 -46 86 -123.5t33 -167.5v-768q0 -29 -10.5 -53.5t-29.5 -43.5
t-44 -29.5t-53 -10.5h-272q-29 0 -52 10.5t-40 29.5t-26 43.5t-9 53.5q0 28 9 53t26 44t40 29.5t52 10.5h73v635q0 44 -10 89t-38 86q-25 36 -43 57.5t-26 41t-4.5 42t21.5 61.5q38 84 100.5 162t154 137.5t214.5 95t282 35.5q148 0 263.5 -27t202 -75.5t146 -114.5
t96.5 -144.5t53.5 -165.5t16.5 -177v-1419z" />
    <glyph glyph-name="wowaenthai" unicode="&#xe27;" horiz-adv-x="1573" 
d="M762 -37q-120 0 -222 32.5t-181.5 92t-136 143.5t-84.5 188q-9 33 -3.5 66t22 61t43 48.5t59.5 29.5q34 9 67 3.5t60.5 -21.5t48 -42.5t29.5 -59.5q15 -67 43 -116t66.5 -80.5t86.5 -46.5t102 -15q83 0 149.5 35.5t113.5 109t72 185.5t25 264q0 153 -25 266t-72 186.5
t-113.5 109.5t-149.5 36q-54 0 -102 -15t-86.5 -46.5t-66.5 -80.5t-43 -116q-9 -33 -29.5 -59.5t-48 -42.5t-60.5 -21.5t-67 3.5q-33 9 -59.5 29.5t-43 48.5t-22 61t3.5 66q28 104 84.5 188t136 143.5t181.5 91.5t222 32q181 0 314.5 -63.5t221 -179t130 -277.5t42.5 -360
t-42.5 -360t-130 -277t-221 -177.5t-314.5 -62.5z" />
    <glyph glyph-name="sosalathai" unicode="&#xe28;" horiz-adv-x="1786" 
d="M1630 138q0 -35 -13.5 -64t-36.5 -50t-54 -32.5t-66 -11.5t-66 11.5t-54 32.5t-36.5 50t-13.5 64v870q0 47 -8.5 95.5t-27 94t-49 85.5t-75 70t-103 47t-134.5 17q-114 0 -190.5 -37.5t-123.5 -96.5t-67 -132t-20 -143v-226q67 97 147.5 154t191.5 75q30 5 59.5 0
t53.5 -19.5t41.5 -36.5t24.5 -52q7 -31 2.5 -60.5t-19 -54t-38.5 -42t-54 -23.5q-116 -14 -194.5 -58t-126 -115.5t-68 -167.5t-20.5 -214v-30q0 -35 -13 -64t-36 -50t-53.5 -32.5t-65.5 -11.5t-65.5 11.5t-53.5 32.5t-36 50t-13 64v833q0 94 14 186t47 174.5t88 153
t136.5 122t193 80.5t258.5 29q95 0 174.5 -13t146.5 -36q45 3 75 28.5t47 63.5q12 34 35 59t52.5 40t63.5 17.5t67 -8.5q34 -12 59 -35t39.5 -53t17.5 -64t-9 -68q-10 -29 -28 -54.5t-41.5 -46.5t-51 -38t-56.5 -29q40 -52 68 -111.5t45.5 -124.5t25 -133.5t7.5 -138.5v-833
z" />
    <glyph glyph-name="sorusithai" unicode="&#xe29;" horiz-adv-x="1769" 
d="M1614 782v-82q0 -94 -13.5 -185t-46 -173t-87 -151.5t-135.5 -120t-191.5 -79t-255.5 -28.5q-146 0 -257 29t-192 80.5t-135 122t-86 153.5t-45.5 175t-13.5 186v833q0 35 13 64t36 50t53.5 32.5t65.5 11.5t65.5 -11.5t53.5 -32.5t36 -50t13 -64v-866q0 -72 19 -146
t64 -133.5t120.5 -97t189.5 -37.5t189 37.5t119.5 97t62.5 133.5t18 146v106h-338q-33 0 -62 11t-51 31t-34.5 47.5t-12.5 60.5v131q0 33 12.5 60.5t34.5 47.5t51 31t62 11t62 -11t51 -31t34.5 -47.5t12.5 -60.5v-10h178v489q0 35 13.5 64t36.5 50t54 32.5t66 11.5t66 -11.5
t54 -32.5t36.5 -50t13.5 -64v-489h51q28 0 51.5 -10.5t40 -29t25.5 -43.5t9 -53t-9 -52.5t-25.5 -43t-40 -29t-51.5 -10.5h-51z" />
    <glyph glyph-name="sosuathai" unicode="&#xe2a;" horiz-adv-x="1729" 
d="M1336 1759q12 34 35 59t52.5 40t63.5 17.5t67 -8.5q34 -12 59 -35t39.5 -53t17.5 -64t-9 -68q-20 -55 -64.5 -96t-99.5 -66q36 -53 56 -120t20 -153v-1074q0 -35 -13 -64t-36 -50t-53.5 -32.5t-65.5 -11.5t-65.5 11.5t-53.5 32.5t-36 50t-13 64v677q-31 -14 -68 -24
t-76.5 -17.5t-81 -13.5t-81.5 -10q-88 -11 -173.5 -25.5t-153.5 -44.5t-110 -81.5t-42 -135.5q0 -73 36.5 -118t92.5 -68t121.5 -28.5t124.5 1.5q28 5 53.5 0t46.5 -19t35.5 -37.5t20.5 -56.5q5 -27 -1.5 -52t-21.5 -45t-37.5 -35t-49.5 -21q-89 -21 -180 -21
q-118 0 -224.5 26t-186.5 83.5t-127.5 149.5t-47.5 224q0 99 23.5 174t69 131t110.5 95t148.5 67.5t183.5 48.5t215 37q72 11 141 21.5t122 29.5t85.5 50t32.5 84q0 81 -30.5 130t-79.5 74.5t-109.5 33.5t-120.5 8q-67 0 -125.5 -11t-105.5 -36t-81 -65.5t-52 -100.5
q-9 -35 -30.5 -61.5t-50 -42.5t-62.5 -20.5t-68 4.5t-60.5 30t-43 49t-21.5 61.5t5 68.5q32 114 101.5 191.5t165 125.5t210.5 68.5t239 20.5q79 0 158.5 -10t153.5 -33q38 7 64.5 31.5t41.5 58.5z" />
    <glyph glyph-name="hohipthai" unicode="&#xe2b;" horiz-adv-x="1733" 
d="M1578 139q0 -35 -13.5 -64t-36.5 -50t-53.5 -33t-65.5 -12t-65.5 12t-53.5 33t-36.5 50t-13.5 64v701q0 47 -6.5 91t-23.5 82t-45.5 68t-72.5 49l-599 -385v-606q0 -35 -13.5 -64t-36.5 -50t-53.5 -33t-65.5 -12t-65.5 12t-53.5 33t-36 50t-13 64v1401q0 34 13 63.5
t36 50.5t53.5 33t65.5 12t65.5 -12t53.5 -33t36.5 -50.5t13.5 -63.5v-421l879 556q28 18 59 23t60 -1.5t54.5 -23.5t42.5 -44q18 -28 23 -58.5t-1 -59.5t-23.5 -54.5t-45.5 -43.5l-171 -112q60 -45 100 -98.5t64 -115.5t34 -131t10 -145v-672z" />
    <glyph glyph-name="lochulathai" unicode="&#xe2c;" horiz-adv-x="2224" 
d="M1933 1541q43 -38 68 -86.5t34.5 -103t6 -113.5t-18.5 -119l-235 -958q-9 -38 -30.5 -71t-52 -57t-68.5 -38t-81 -14q-41 0 -77 13t-65.5 36t-51 54t-32.5 68l-253 812l-245 -810q-12 -38 -33.5 -70t-50.5 -55t-65.5 -35.5t-78.5 -12.5q-40 0 -77 13t-67 36t-51 54
t-29 68l-297 1337q-8 36 -1 70.5t25.5 62.5t47.5 47.5t65 26.5t72 1.5t66 -22.5t51.5 -44.5t27.5 -65.5l186 -1118l245 832q10 36 30 67t48 53.5t62.5 35.5t74.5 13q41 0 76 -13.5t63 -37.5t48 -56.5t32 -70.5l254 -827q17 85 32 164t29.5 156.5t29.5 155.5t32 159
q13 62 17 104.5t4 80.5q0 69 -27 112.5t-97 58.5q-44 10 -72.5 45t-28.5 81q0 24 8.5 45.5t23.5 39t35 29t43 14.5q38 6 75.5 17t70.5 29.5t60.5 45.5t45.5 65q15 33 37 60t50 46t60.5 28t67.5 5q43 -5 73 -24t47.5 -47t22.5 -61.5t-1 -68.5q-9 -47 -34.5 -85.5t-61.5 -68.5
t-79 -52.5t-86 -35.5z" />
    <glyph glyph-name="oangthai" unicode="&#xe2d;" horiz-adv-x="1704" 
d="M98 825q0 27 10.5 51.5t28.5 42.5t42.5 28.5t51.5 10.5h522q27 0 50 -10.5t39 -28.5t25 -42.5t9 -51.5t-9 -51.5t-25 -42.5t-39 -28.5t-50 -10.5h-307q3 -100 35 -182t86 -140.5t128 -91t161 -32.5q97 0 174.5 39t131.5 114.5t83 185.5t29 251q0 289 -105 441.5
t-317 152.5q-134 0 -231 -54.5t-139 -158.5q-11 -34 -32.5 -60.5t-50 -43t-62 -21t-67.5 4.5t-61 31t-43 51t-19.5 63t10.5 67q39 96 101.5 172t149 129t197.5 81.5t247 28.5q140 0 251.5 -31t196.5 -87.5t145.5 -136.5t98.5 -178t56 -212t18 -239q0 -117 -18 -227
t-56.5 -207t-99 -177.5t-145 -139t-195 -90.5t-248.5 -32t-248 31.5t-194 88.5t-143.5 136.5t-97.5 175t-56 204.5t-19 226z" />
    <glyph glyph-name="honokhukthai" unicode="&#xe2e;" horiz-adv-x="1696" 
d="M1259 1769q12 34 35 59t52.5 40t63.5 17.5t67 -8.5q34 -12 59 -35t39.5 -53t17.5 -64t-9 -68q-20 -55 -64.5 -96t-99.5 -66q52 -60 89.5 -133t61.5 -157t35.5 -177t11.5 -192q0 -117 -18 -227t-56.5 -207t-99 -177.5t-145 -139t-195 -90.5t-248.5 -32t-248 31.5
t-194 88.5t-143.5 136.5t-97.5 175t-56 204.5t-19 226q0 27 10.5 51.5t28.5 42.5t42.5 28.5t51.5 10.5h522q27 0 50 -10.5t39 -28.5t25 -42.5t9 -51.5t-9 -51.5t-25 -42.5t-39 -28.5t-50 -10.5h-307q3 -100 35 -182t86 -140.5t128 -91t161 -32.5q97 0 174.5 39t131.5 114.5
t83 185.5t29 251q0 289 -105 441.5t-317 152.5q-134 0 -231 -54.5t-139 -158.5q-11 -34 -32.5 -60.5t-50 -43t-62 -21t-67.5 4.5t-61 31t-43 51t-19.5 63t10.5 67q39 96 101.5 172t149 129t197.5 81.5t247 28.5q83 0 155 -11t135 -32q43 5 72 30.5t45 61.5z" />
    <glyph glyph-name="paiyannoithai" unicode="&#xe2f;" horiz-adv-x="1737" 
d="M1581 138q0 -35 -13 -64t-36 -50t-53.5 -32.5t-65.5 -11.5t-65.5 11.5t-53.5 32.5t-36 50t-13 64v644q-80 -68 -190 -101.5t-240 -33.5q-172 0 -302.5 39t-218 111.5t-131.5 174.5t-44 228q0 90 24 160.5t65 124t96.5 90.5t118.5 60t129.5 33.5t131.5 10.5h169
q29 0 53 -11t41.5 -30t27 -45t9.5 -55t-9.5 -55t-27 -45t-41.5 -30t-53 -11h-169q-111 0 -164 -49.5t-53 -151.5q0 -49 15 -97.5t53 -86.5t103 -62t165 -24q215 0 328.5 79t113.5 248v288q0 35 13 64t36 50t53.5 32.5t65.5 11.5t65.5 -11.5t53.5 -32.5t36 -50t13 -64v-1403z
" />
    <glyph glyph-name="saraathai" unicode="&#xe30;" horiz-adv-x="1012" 
d="M311 1094q-32 0 -60.5 10.5t-49.5 30t-33 46.5t-12 59v133q0 32 12 59t33 46.5t49.5 30t60.5 10.5t60.5 -10.5t49.5 -30t33.5 -46.5t12.5 -59v-17h320q27 0 49.5 -10.5t38 -28t24.5 -41.5t9 -51t-9 -51t-24.5 -41.5t-38 -28t-49.5 -10.5h-476zM311 262q-32 0 -60.5 10.5
t-49.5 30t-33 46.5t-12 59v133q0 32 12 59t33 46.5t49.5 30t60.5 10.5t60.5 -10.5t49.5 -30t33.5 -46.5t12.5 -59v-17h320q27 0 49.5 -10.5t38 -28t24.5 -41.5t9 -51t-9 -51t-24.5 -41.5t-38 -28t-49.5 -10.5h-476z" />
    <glyph glyph-name="maihanakatthai" unicode="&#xe31;" 
d="M-902 1937q-32 0 -60.5 10.5t-49.5 30t-33 46.5t-12 59v143q0 32 12 59t33 46.5t49.5 30t60.5 10.5t60.5 -10.5t49.5 -30t33.5 -46.5t12.5 -59v-31h716q27 0 49.5 -10t38 -27.5t24.5 -41t9 -50.5t-9 -50.5t-24.5 -41t-38 -27.5t-49.5 -10h-872z" />
    <glyph glyph-name="saraaathai" unicode="&#xe32;" horiz-adv-x="1410" 
d="M1254 138q0 -35 -13 -64t-36 -50t-53.5 -32.5t-65.5 -11.5t-65.5 11.5t-53.5 32.5t-36 50t-13 64v931q0 181 -69 264.5t-201 83.5q-93 0 -157.5 -46t-93.5 -135q-11 -34 -33 -61t-51 -44t-63 -23t-69 3q-38 9 -66 30.5t-45 50.5t-21 63t7 69q31 97 91.5 170t139.5 121.5
t172 72.5t189 24q130 0 241 -35.5t192 -108t127 -183t46 -259.5v-988z" />
    <glyph glyph-name="saraamthai" unicode="&#xe33;" horiz-adv-x="1410" 
d="M-475 2224q0 -23 9 -44t25 -36.5t37 -25t44 -9.5t43.5 9.5t36.5 25t25 36.5t9 44t-9 44t-25 36.5t-36.5 25t-43.5 9.5t-44 -9.5t-37 -25t-25 -36.5t-9 -44zM-680 2224q0 66 25 124t68.5 101.5t102 69t124.5 25.5q64 0 122 -25.5t102 -69t69.5 -101.5t25.5 -124
t-25.5 -124t-69.5 -101.5t-102 -68.5t-122 -25q-66 0 -124.5 25t-102 68.5t-68.5 101.5t-25 124zM1254 138q0 -35 -13 -64t-36 -50t-53.5 -32.5t-65.5 -11.5t-65.5 11.5t-53.5 32.5t-36 50t-13 64v931q0 181 -69 264.5t-201 83.5q-93 0 -157.5 -46t-93.5 -135
q-11 -34 -33 -61t-51 -44t-63 -23t-69 3q-38 9 -66 30.5t-45 50.5t-21 63t7 69q31 97 91.5 170t139.5 121.5t172 72.5t189 24q130 0 241 -35.5t192 -108t127 -183t46 -259.5v-988z" />
    <glyph glyph-name="saraithai" unicode="&#xe34;" 
d="M-1509 1933q-28 0 -51 10.5t-39.5 28.5t-25.5 42t-9 52t9 52.5t25.5 42.5t39.5 28.5t51 10.5h1249q28 0 51 -10.5t39.5 -28.5t25.5 -42.5t9 -52.5t-9 -52t-25.5 -42t-39.5 -28.5t-51 -10.5h-1249z" />
    <glyph glyph-name="saraiithai" unicode="&#xe35;" 
d="M-1509 1933q-28 0 -51 10.5t-39.5 28.5t-25.5 42t-9 52t9 52.5t25.5 42.5t39.5 28.5t51 10.5h1034v107q0 33 12.5 60.5t34.5 47.5t51 31t62 11t62 -11t50.5 -31t34 -47.5t12.5 -60.5v-224q0 -33 -12.5 -60.5t-34 -47.5t-50.5 -31t-62 -11h-1194z" />
    <glyph glyph-name="sarauethai" unicode="&#xe36;" 
d="M-1509 1933q-28 0 -51 10.5t-39.5 28.5t-25.5 42t-9 52t9 52.5t25.5 42.5t39.5 28.5t51 10.5h800v28q0 61 23 115t63 94t93.5 63t115.5 23q61 0 115 -23t94 -63t63 -94t23 -115q0 -62 -23 -115.5t-63 -93.5t-94 -63t-115 -23h-1095zM-520 2228q0 -21 8.5 -40t23 -32.5
t34 -21.5t40.5 -8q22 0 41.5 8t34 21.5t23 32.5t8.5 40q0 23 -8.5 42.5t-23 34t-34 22.5t-41.5 8q-21 0 -40.5 -8t-34 -22.5t-23 -34t-8.5 -42.5z" />
    <glyph glyph-name="saraueethai" unicode="&#xe37;" 
d="M-1509 1933q-28 0 -51 10.5t-39.5 28.5t-25.5 42t-9 52t9 52.5t25.5 42.5t39.5 28.5t51 10.5h596v115q0 31 12 57.5t33 45t48.5 29t58.5 10.5t58.5 -10.5t48 -29t32.5 -45t12 -57.5v-115h151v115q0 31 12 57.5t33 45t48.5 29t58.5 10.5t58.5 -10.5t48 -29t32.5 -45
t12 -57.5v-240q0 -32 -12 -58t-32.5 -44.5t-48 -29t-58.5 -10.5h-1202z" />
    <glyph glyph-name="sarauthai" unicode="&#xe38;" 
d="M-156 -701q0 -33 -12.5 -60t-33.5 -46.5t-49.5 -30.5t-61.5 -11t-61.5 11t-50 30.5t-34 46.5t-12.5 60v250h-68q-27 0 -48.5 10t-37.5 27.5t-24.5 41t-8.5 50.5t8.5 50.5t24.5 41t37.5 27.5t48.5 10h264q27 0 48.5 -10t37.5 -27.5t24.5 -41t8.5 -50.5v-379z" />
    <glyph glyph-name="sarauuthai" unicode="&#xe39;" 
d="M-471 -320q0 33 12.5 60t34 46.5t50 30t61.5 10.5t61.5 -10.5t49.5 -30t33.5 -46.5t12.5 -60v-102q0 -87 -23.5 -164.5t-77.5 -135.5t-140.5 -92t-212.5 -34q-119 0 -203.5 28.5t-140 81t-83.5 125.5t-32 162h-64q-27 0 -48.5 10t-37.5 27.5t-24.5 41t-8.5 50.5t8.5 50.5
t24.5 41t37.5 27.5t48.5 10h264q27 0 48.5 -10t37.5 -27.5t24.5 -41t8.5 -50.5v-100q0 -80 34 -122t106 -42q68 0 103.5 42t35.5 122v102z" />
    <glyph glyph-name="phinthuthai" unicode="&#xe3a;" 
d="M-573 -369q0 48 18 89.5t49 73t72.5 49.5t89.5 18q46 0 87 -18t71.5 -49.5t48.5 -73t18 -89.5q0 -46 -18 -87t-48.5 -71.5t-71.5 -48.5t-87 -18q-48 0 -89.5 18t-72.5 48.5t-49 71.5t-18 87z" />
    <glyph glyph-name="PUCR2005" unicode="&#xe3e;" 
 />
    <glyph glyph-name="bahtthai" unicode="&#xe3f;" horiz-adv-x="1905" 
d="M1034 0v-204q0 -18 -5 -35.5t-15 -31t-24.5 -21.5t-33.5 -8t-33.5 8t-24.5 21.5t-15 31t-5 35.5v204h-509q-36 0 -68 14t-56 38t-38 56t-14 68v1647q0 36 14 68t38 56t56 38t68 14h509v182q0 19 5 36.5t15 31t24.5 21.5t33.5 8q18 0 32.5 -8t24.5 -21.5t15.5 -31
t5.5 -36.5v-182q87 -1 173.5 -9.5t165 -29.5t146 -57t117 -92t77.5 -135t28 -185q0 -146 -52.5 -250.5t-160.5 -175.5q72 -31 127.5 -78.5t94 -108t58 -132.5t19.5 -152q0 -74 -19 -146.5t-56 -138.5t-92 -122.5t-127 -98t-160.5 -65t-192.5 -23.5h-146zM1034 872v-573h109
q80 0 142 21t104 60.5t64 96.5t22 129q0 80 -34.5 131.5t-89.5 81.5t-125 41.5t-140 11.5h-52zM878 299v573h-333v-573h333zM878 1176v520h-333v-520h333zM1393 1438q0 94 -26 146.5t-73.5 77t-113.5 29.5t-146 5v-520q188 4 273.5 69t85.5 193z" />
    <glyph glyph-name="saraethai" unicode="&#xe40;" horiz-adv-x="717" 
d="M528 138q0 -35 -13.5 -64t-36.5 -50t-54 -32.5t-66 -11.5t-66 11.5t-54 32.5t-36.5 50t-13.5 64v1403q0 35 13.5 64t36.5 50t54 32.5t66 11.5t66 -11.5t54 -32.5t36.5 -50t13.5 -64v-1403z" />
    <glyph glyph-name="saraaethai" unicode="&#xe41;" horiz-adv-x="1282" 
d="M528 138q0 -35 -13.5 -64t-36.5 -50t-54 -32.5t-66 -11.5t-66 11.5t-54 32.5t-36.5 50t-13.5 64v1403q0 35 13.5 64t36.5 50t54 32.5t66 11.5t66 -11.5t54 -32.5t36.5 -50t13.5 -64v-1403zM1094 138q0 -35 -13.5 -64t-36.5 -50t-54 -32.5t-66 -11.5t-66 11.5t-54 32.5
t-36.5 50t-13.5 64v1403q0 35 13.5 64t36.5 50t54 32.5t66 11.5t66 -11.5t54 -32.5t36.5 -50t13.5 -64v-1403z" />
    <glyph glyph-name="saraothai" unicode="&#xe42;" horiz-adv-x="852" 
d="M500 2167q40 -47 59 -105.5t19 -119.5v-1668h73q28 0 51.5 -10.5t40.5 -29.5t26 -44t9 -53q0 -29 -9 -53.5t-26 -43.5t-40.5 -29.5t-51.5 -10.5h-272q-29 0 -53.5 10.5t-43.5 29.5t-29.5 43.5t-10.5 53.5v1796q0 88 -43 146t-112 83q-41 15 -66.5 51.5t-25.5 81.5
q0 29 11 55t30.5 45.5t45.5 30.5t55 11h719q28 0 52.5 -10.5t43 -29t29 -43t10.5 -52.5t-10.5 -52.5t-29 -43t-43 -29t-52.5 -10.5h-356z" />
    <glyph glyph-name="saraaimaimuanthai" unicode="&#xe43;" horiz-adv-x="852" 
d="M231 2093q-7 -32 -25 -57t-43 -41t-55.5 -22t-62.5 1t-57.5 25t-42 43t-22.5 55t2 61q22 92 67.5 158.5t107 110t134.5 64t151 20.5q84 0 162.5 -19.5t139 -61.5t96.5 -109t36 -162q0 -53 -16.5 -92.5t-43 -74t-59.5 -68t-65 -73.5q-21 -26 -33 -59t-17 -69t-6 -71.5
t-1 -66.5v-1311h73q28 0 51.5 -10.5t40.5 -29.5t26 -44t9 -53q0 -29 -9 -53.5t-26 -43.5t-40.5 -29.5t-51.5 -10.5h-272q-29 0 -53.5 10.5t-43.5 29.5t-29.5 43.5t-10.5 53.5v1448q0 69 5.5 122.5t21.5 100t45 89t75 90.5q12 12 33 30.5t41 39.5t34.5 43t14.5 42
q0 18 -6 36.5t-20.5 33.5t-39 24t-61.5 9q-60 0 -99 -40t-55 -112z" />
    <glyph glyph-name="saraaimaimalaithai" unicode="&#xe44;" horiz-adv-x="852" 
d="M578 274h73q28 0 51.5 -10.5t40.5 -29.5t26 -44t9 -53q0 -29 -9 -53.5t-26 -43.5t-40.5 -29.5t-51.5 -10.5h-272q-29 0 -53.5 10.5t-43.5 29.5t-29.5 43.5t-10.5 53.5v1805q0 61 19 119.5t59 105.5h-356q-28 0 -52.5 10.5t-43 29t-29 43t-10.5 52.5t10.5 52.5t29 43
t43 29t52.5 10.5h719q29 0 55 -11t45.5 -30.5t30.5 -45.5t11 -55q0 -45 -25.5 -81.5t-66.5 -51.5q-69 -25 -112 -83t-43 -146v-1659z" />
    <glyph glyph-name="lakkhangyaothai" unicode="&#xe45;" horiz-adv-x="1410" 
d="M1254 -406q0 -35 -13 -64t-36 -50t-53.5 -32.5t-65.5 -11.5t-65.5 11.5t-53.5 32.5t-36 50t-13 64v1475q0 181 -69 264.5t-201 83.5q-93 0 -157.5 -46t-93.5 -135q-11 -34 -33 -61t-51 -44t-63 -23t-69 3q-38 9 -66 30.5t-45 50.5t-21 63t7 69q31 97 91.5 170
t139.5 121.5t172 72.5t189 24q130 0 241 -35.5t192 -108t127 -183t46 -259.5v-1532z" />
    <glyph glyph-name="maiyamokthai" unicode="&#xe46;" horiz-adv-x="1638" 
d="M505 1671q20 6 42 11t45.5 4t47.5 -11t47 -34l120 -125l112 126q22 24 46.5 34t49 11t48.5 -4t45 -11q126 -34 200 -100.5t113 -155t50.5 -193.5t11.5 -215v-1414q0 -35 -13.5 -64t-36.5 -50t-54 -32.5t-66 -11.5t-66 11.5t-54 32.5t-36.5 50t-13.5 64v1446q0 46 -1.5 99
t-11 100t-29.5 82.5t-57 46.5l-180 -188q-12 -12 -27 -18.5t-31.5 -6.5t-32.5 6.5t-28 18.5l-180 184q-34 -21 -58 -53t-38.5 -71t-20 -84.5t-2.5 -94.5q2 -37 8 -73.5t23.5 -65t50 -43.5t86.5 -9q33 4 58.5 -7t43 -31.5t27 -48.5t9.5 -59q0 -63 -38 -103t-100 -46
q-106 -10 -198 15t-159.5 85.5t-106.5 155.5t-39 226q0 109 16.5 205.5t60 175t120 138t197.5 95.5z" />
    <glyph glyph-name="maitaikhuthai" unicode="&#xe47;" 
d="M-1009 2466q-57 0 -91.5 -14.5t-53.5 -36.5t-25 -47t-6 -46q0 -15 5 -34.5t16.5 -37.5t31 -30t48.5 -12q32 0 55 18t33 51q11 42 43.5 62.5t77.5 20.5q48 0 82 -19t44 -64q8 -32 28.5 -50.5t50.5 -18.5q28 0 46 16t23 44v-1q5 24 19.5 42t34.5 29.5t44 16.5t48 3
q28 -3 53.5 -15t44 -31.5t28 -47.5t5.5 -63q-8 -63 -36 -109t-69 -75.5t-92 -43.5t-105 -14q-40 0 -75.5 11t-66.5 28.5t-56 40t-44 45.5q-21 -25 -49.5 -47.5t-62 -40t-71 -27.5t-75.5 -10q-68 0 -120.5 17t-92.5 46t-67.5 66t-44.5 77.5t-24.5 81t-7.5 75.5
q0 100 37.5 173t99.5 120t143 70t167 23h726q26 0 47 -10t36 -27t23.5 -39t8.5 -47q0 -53 -31.5 -86t-83.5 -33h-699z" />
    <glyph glyph-name="maiekthai" unicode="&#xe48;" 
d="M-160 2752q0 -32 -12 -59t-33 -46.5t-49.5 -30t-60.5 -10.5t-60.5 10.5t-49.5 30t-33.5 46.5t-12.5 59v249q0 32 12.5 59t33.5 46.5t49.5 30t60.5 10.5t60.5 -10.5t49.5 -30t33 -46.5t12 -59v-249z" />
    <glyph glyph-name="maithothai" unicode="&#xe49;" 
d="M86 2943q-29 -68 -83 -126.5t-133 -102t-182.5 -68.5t-232.5 -25h-108q-26 0 -48.5 10t-39.5 27t-27 39.5t-10 48.5v125h-61q-26 0 -48.5 10t-39.5 27t-27 39.5t-10 48.5t10 48.5t27 39.5t39.5 27t48.5 10h202q26 0 48.5 -10t39.5 -27t27 -39.5t10 -48.5v-125
q67 1 122 15t97 38t70.5 56.5t42.5 70.5q11 27 31.5 47t46 31t54 11.5t56.5 -10.5t48 -31.5t30.5 -46t11 -54t-11.5 -55.5z" />
    <glyph glyph-name="maitrithai" unicode="&#xe4a;" 
d="M-51 3028q7 26 23.5 46t38 32.5t48 16.5t53.5 -2q32 -8 54 -24t33.5 -37t13.5 -46.5t-6 -50.5q-19 -61 -51 -118.5t-74 -104t-91.5 -78t-103.5 -41.5h-108q-38 0 -62 22t-27 57q-4 46 -19 78t-50 32q-27 0 -42 -16t-18 -43q-4 -34 -26.5 -57t-60.5 -23q-36 0 -64 20
t-30 60q-2 29 -17 44t-41 15q-32 0 -46.5 -23.5t-16.5 -67.5q-2 -59 -38 -87.5t-88 -28.5q-58 0 -90.5 34t-32.5 82q0 87 24 150.5t63 105t89.5 62t103.5 20.5q54 0 100 -25.5t81 -63.5q36 38 82.5 63.5t106.5 25.5q36 0 71.5 -10.5t65.5 -31.5t52 -51.5t31 -70.5
q18 22 39 60t30 75z" />
    <glyph glyph-name="maichattawathai" unicode="&#xe4b;" 
d="M-164 2747q0 -32 -12 -58t-33 -44.5t-48.5 -29t-58.5 -10.5t-58.5 10.5t-48 29t-32.5 44.5t-12 58v83h-147q-25 0 -45.5 9.5t-35 26t-22.5 38.5t-8 47t8 47t22.5 38.5t35 26t45.5 9.5h147v83q0 31 12 57.5t33 45t48.5 29t58.5 10.5t58.5 -10.5t48 -29t32.5 -45t12 -57.5
v-83h147q25 0 45.5 -9.5t35 -26t22.5 -38.5t8 -47t-8 -47t-22.5 -38.5t-35 -26t-45.5 -9.5h-147v-83z" />
    <glyph glyph-name="thanthakhatthai" unicode="&#xe4c;" 
d="M-210 2916q59 7 99 -22t50 -80q5 -26 -0.5 -51.5t-19 -45.5t-34.5 -33.5t-47 -16.5q-93 -11 -149.5 -52t-73.5 -115q-9 -30 -29 -51t-47 -31.5t-58 -11.5t-61 9q-32 11 -53.5 32.5t-32 48.5t-10 57t12.5 60q49 126 165 204.5t288 98.5z" />
    <glyph glyph-name="nikhahitthai" unicode="&#xe4d;" 
d="M-475 2224q0 -23 9 -44t25 -36.5t37 -25t44 -9.5t43.5 9.5t36.5 25t25 36.5t9 44t-9 44t-25 36.5t-36.5 25t-43.5 9.5t-44 -9.5t-37 -25t-25 -36.5t-9 -44zM-680 2224q0 66 25 124t68.5 101.5t102 69t124.5 25.5q64 0 122 -25.5t102 -69t69.5 -101.5t25.5 -124
t-25.5 -124t-69.5 -101.5t-102 -68.5t-122 -25q-66 0 -124.5 25t-102 68.5t-68.5 101.5t-25 124z" />
    <glyph glyph-name="yamakkanthai" unicode="&#xe4e;" 
d="M-754 2099q17 110 91 183.5t192 105.5q12 49 38.5 94t69.5 80.5t101.5 58t134.5 25.5q27 1 52.5 -6t45.5 -21.5t34 -35t18 -47.5t-2 -53t-21 -46.5t-37 -33.5t-49 -13q-37 0 -61.5 -12.5t-39 -34t-20.5 -50.5t-6 -61q0 -24 -8 -38t-20 -21t-26.5 -8.5t-27.5 -1.5
q-81 0 -121 -32.5t-48 -98.5q-4 -31 -20 -54.5t-40 -38t-54.5 -19.5t-63.5 0q-30 5 -53.5 22t-38 41.5t-20 54.5t-0.5 61z" />
    <glyph glyph-name="fongmanthai" unicode="&#xe4f;" horiz-adv-x="2077" 
d="M147 836q0 122 32 234.5t89.5 210t139 178t180 137.5t212 88.5t236.5 31.5q121 0 233 -31.5t209.5 -88.5t177.5 -137.5t137 -178t88.5 -210t31.5 -234.5t-31.5 -234.5t-88.5 -210.5t-137 -178.5t-177.5 -137.5t-209.5 -88.5t-233 -31.5q-123 0 -236.5 31.5t-212 88.5
t-180 137.5t-139 178.5t-89.5 210.5t-32 234.5zM565 844q0 94 37.5 178t101.5 147.5t149.5 100.5t182.5 37q94 0 177.5 -37t146 -100.5t99 -147.5t36.5 -178q0 -97 -36.5 -182t-99 -148.5t-146 -100t-177.5 -36.5q-97 0 -182.5 36.5t-149.5 100t-101.5 148.5t-37.5 182z
M782 844q0 -54 19 -100.5t53 -80.5t80.5 -53.5t101.5 -19.5q51 0 95 19.5t76.5 53.5t51.5 80.5t19 100.5q0 51 -19 95.5t-51.5 78t-76.5 53t-95 19.5q-55 0 -101.5 -19.5t-80.5 -53t-53 -78t-19 -95.5zM393 844q0 -132 50 -249t136.5 -204.5t204 -138.5t252.5 -51
q87 0 168 23t151.5 65.5t128.5 101t99.5 130t64.5 153.5t23 170t-23 169.5t-64.5 152t-99.5 128t-128.5 99t-151.5 64t-168 22.5q-135 0 -252.5 -49.5t-204 -136t-136.5 -202t-50 -247.5z" />
    <glyph glyph-name="zerothai" unicode="&#xe50;" horiz-adv-x="1823" 
d="M1704 733q0 -206 -62.5 -351.5t-170 -237.5t-251.5 -134.5t-307 -42.5q-108 0 -209.5 18.5t-189.5 58t-161 100.5t-125 146.5t-80.5 195.5t-28.5 247q0 181 54.5 321t157 235.5t249.5 144.5t333 49q184 0 331 -49t249 -144.5t156.5 -235.5t54.5 -321zM1368 717
q0 132 -36 224.5t-98 151t-144.5 85t-176.5 26.5q-93 0 -176.5 -26.5t-146 -85t-99 -151t-36.5 -224.5q0 -102 32.5 -188t92.5 -149t144.5 -98.5t188.5 -35.5q105 0 189 35.5t143 98.5t91 149t32 188z" />
    <glyph glyph-name="onethai" unicode="&#xe51;" horiz-adv-x="1810" 
d="M153 117q-29 18 -45.5 45.5t-22 58.5t1.5 63t27 59q19 27 47 44.5t58.5 22.5t62 -2t58.5 -29q98 -81 216 -111t251 -30q118 0 218 35t172.5 102.5t113.5 167.5t41 231q0 98 -28 180t-84.5 141.5t-142 92.5t-200.5 33q-94 0 -171.5 -22.5t-133 -60.5t-86.5 -87t-31 -101
q0 -42 17 -82.5t56 -72t101.5 -50.5t153.5 -17q34 4 59.5 -3.5t43 -23t27 -37.5t11.5 -47q3 -50 -17 -79.5t-52.5 -45t-72 -20.5t-74.5 -5h-28q-117 0 -220.5 33t-181 93.5t-122.5 145t-45 187.5q0 101 30 182t83.5 143.5t125.5 107t156.5 73t177 42t185.5 13.5
q111 0 214.5 -17t193 -53t163 -92.5t126 -135t81.5 -181t29 -230.5q0 -181 -60.5 -330t-174 -255t-277 -164t-369.5 -58q-77 0 -159.5 3.5t-166.5 17.5t-169 43.5t-167 81.5z" />
    <glyph glyph-name="twothai" unicode="&#xe52;" horiz-adv-x="2068" 
d="M975 414q-97 0 -164.5 24.5t-112.5 64.5t-70.5 91.5t-38 105.5t-16 106.5t-4.5 94.5v78q0 84 29 161t82.5 140t130.5 110t173 72q10 3 27 5t36.5 -0.5t41 -10.5t41.5 -25l107 -92l97 92q22 21 46.5 29.5t48 10t44 -2t35.5 -6.5q92 -20 170 -61t134.5 -98t88.5 -129
t32 -154v-385q0 -115 -28.5 -208t-80 -166t-123 -126t-157 -87.5t-182.5 -51t-199 -16.5h-164q-206 0 -366 48.5t-269.5 138.5t-167 217t-57.5 284v538q0 78 -16.5 122t-54.5 60q-23 9 -39 27.5t-25 41.5t-10.5 49t4.5 52q8 31 26.5 54t44 38t55.5 21t62 2q62 -8 114.5 -42
t90.5 -89.5t59 -130.5t21 -166v-606q0 -78 37.5 -146.5t112.5 -118.5t187 -79t261 -29q140 0 240.5 27t165.5 71.5t96 102t31 119.5v405q0 43 -10.5 76.5t-29.5 57.5t-45.5 39.5t-58.5 23.5l-221 -197l-221 185q-22 -2 -43 -13.5t-38 -33.5t-27.5 -54.5t-10.5 -75.5v-90
q0 -41 2 -82.5t12.5 -75t32 -54.5t60.5 -21h15q27 0 51 -10.5t41.5 -28t28 -41.5t10.5 -51t-10.5 -51t-28 -41.5t-41.5 -28t-51 -10.5h-44z" />
    <glyph glyph-name="threethai" unicode="&#xe53;" horiz-adv-x="1855" 
d="M1389 913q0 48 -17.5 93t-46 80t-64.5 57t-73 24l-262 -213l-250 213q-34 -8 -71 -30t-67.5 -67t-50.5 -116t-20 -176v-110q0 -69 2 -140t18 -128.5t51 -93.5t101 -36q17 0 46 1t67 5q32 3 58.5 -7t45 -29t29 -45t10.5 -56q0 -27 -9.5 -51.5t-26.5 -43.5t-39.5 -32
t-49.5 -18q-139 -25 -240.5 -10.5t-172.5 58.5t-115.5 112.5t-69 151t-33 175t-8.5 183.5v110q0 154 32.5 271.5t95 201t153 136t206.5 78.5q13 3 33.5 5t44.5 -1t50.5 -13.5t52.5 -32.5l131 -112l139 112q31 25 62 36t58.5 13.5t50 -1.5t38.5 -7q115 -25 199 -77.5
t139 -125t81.5 -160.5t26.5 -184v-775q0 -35 -13 -64t-36 -50t-53.5 -32.5t-65.5 -11.5t-65.5 11.5t-53 32.5t-35.5 50t-13 64v775z" />
    <glyph glyph-name="fourthai" unicode="&#xe54;" horiz-adv-x="1855" 
d="M819 0q-136 0 -240 28.5t-180.5 76.5t-128 112t-82.5 135t-44 144.5t-13 142.5v160q0 167 56 290.5t160.5 204.5t252 120.5t330.5 39.5h282q41 0 70.5 8.5t50.5 24.5t34 39t20 51q10 34 32 59.5t50.5 41t62.5 19.5t68 -5q36 -9 62 -31t41 -51.5t18.5 -63.5t-6.5 -68
q-19 -63 -54 -119.5t-93.5 -99t-142.5 -67.5t-200 -25h-324q-100 0 -180 -21t-136.5 -62t-87 -101.5t-30.5 -138.5v-193q0 -78 23 -145.5t70.5 -117t121 -77.5t174.5 -28h21q-22 21 -41.5 47.5t-34 57t-23 64t-8.5 68.5q0 21 3 52t15 66.5t35.5 72t64 67.5t101 54t146.5 32
q30 3 57.5 -4.5t49.5 -23.5t37 -40t19 -53t-3.5 -56t-24 -49t-41 -37.5t-53.5 -19.5q-30 -7 -46.5 -18.5t-24.5 -24t-9.5 -25t-1.5 -21.5q0 -42 18 -79.5t46 -66.5t62 -46t66 -17h343q29 0 53.5 -11t42 -30.5t27 -45.5t9.5 -55t-9.5 -55t-27 -45t-42 -30t-53.5 -11h-810z
" />
    <glyph glyph-name="fivethai" unicode="&#xe55;" horiz-adv-x="1855" 
d="M852 1483q0 -47 27.5 -77t70.5 -30q50 0 78.5 30t28.5 77q0 49 -28.5 77.5t-78.5 28.5q-43 0 -70.5 -28.5t-27.5 -77.5zM819 0q-136 0 -240 28.5t-180.5 76.5t-128 112t-82.5 135t-44 144.5t-13 142.5v160q0 133 35.5 237.5t103 182.5t164 130t218.5 78l-1 1
q-3 9 -5.5 25.5t-2.5 29.5q0 61 24.5 116.5t66 96.5t97.5 65.5t119 24.5q69 0 127 -24.5t100 -65.5t65.5 -96.5t23.5 -116.5q0 -8 -0.5 -12.5t-1.5 -7.5q-1 -4 -1 -5q55 10 83.5 41t40.5 78q10 34 32 59.5t50.5 41t62.5 19.5t68 -5q36 -9 62 -31t41 -51.5t18.5 -63.5
t-6.5 -68q-19 -63 -54 -119.5t-93.5 -99t-142.5 -67.5t-200 -25h-324q-100 0 -180 -21t-136.5 -62t-87 -101.5t-30.5 -138.5v-193q0 -78 23 -145.5t70.5 -117t121 -77.5t174.5 -28h21q-22 21 -41.5 47.5t-34 57t-23 64t-8.5 68.5q0 21 3 52t15 66.5t35.5 72t64 67.5t101 54
t146.5 32q30 3 57.5 -4.5t49.5 -23.5t37 -40t19 -53t-3.5 -56t-24 -49t-41 -37.5t-53.5 -19.5q-30 -7 -46.5 -18.5t-24.5 -24t-9.5 -25t-1.5 -21.5q0 -42 18 -79.5t46 -66.5t62 -46t66 -17h343q29 0 53.5 -11t42 -30.5t27 -45.5t9.5 -55t-9.5 -55t-27 -45t-42 -30t-53.5 -11
h-810z" />
    <glyph glyph-name="sixthai" unicode="&#xe56;" horiz-adv-x="1880" 
d="M112 1347q-17 27 -22 57.5t2 59.5t24.5 54t44.5 42t57.5 21.5t59 -2.5t54 -24.5t42.5 -44.5l97 -154q45 21 99.5 42t120 37.5t142.5 28.5t166 15q147 4 261.5 -21t199.5 -72.5t143.5 -114t94 -146t51.5 -168t16 -179.5v-102q0 -94 -23 -183.5t-68.5 -168.5t-113.5 -144
t-158.5 -111t-203.5 -69.5t-248 -19.5q-150 4 -274.5 40.5t-214 101t-138.5 155t-49 202.5q0 106 36 183t102.5 126.5t160.5 73t209 23.5h41q27 0 50.5 -10t41 -27.5t27.5 -41t10 -50.5t-10 -50.5t-27.5 -41t-41 -27.5t-50.5 -10h-28q-57 0 -93 -12.5t-56.5 -34t-28 -50.5
t-7.5 -63q0 -42 26 -78.5t73 -64t112.5 -44.5t145.5 -18q89 -2 171.5 24t146.5 78t102 129t38 179v98q0 109 -28.5 189t-81.5 132.5t-129.5 77t-173.5 23.5q-131 -2 -262 -39t-274 -119q-15 -9 -35.5 -21t-45 -15t-51 9.5t-52.5 53.5z" />
    <glyph glyph-name="seventhai" unicode="&#xe57;" horiz-adv-x="2200" 
d="M2056 745q0 -153 -44 -283t-131.5 -229t-219.5 -162t-309 -83q-33 -4 -66.5 4.5t-62.5 31.5q-29 22 -46.5 53t-22 64.5t4.5 68t32 63.5q33 48 51.5 94.5t27 94t10.5 96t2 101.5v123q0 88 -14.5 153.5t-38.5 111.5t-56 73.5t-67 38.5l-213 -217l-221 225q-32 -8 -67.5 -34
t-65 -73.5t-49 -118t-19.5 -167.5v-106q0 -69 2 -140t18 -128.5t51 -93.5t101 -36q17 0 46 1t67 5q32 3 58.5 -7t45 -29t29 -45t10.5 -56q0 -27 -9.5 -51.5t-26.5 -43.5t-39.5 -32t-49.5 -18q-139 -25 -240.5 -10.5t-172.5 58.5t-115.5 112.5t-69 151t-33 175t-8.5 183.5
v106q0 292 127 463t361 224q13 3 33 5t44 -2t49.5 -16.5t50.5 -37.5l89 -91l88 91q25 26 50.5 38.5t49 16t43 1.5t32.5 -5q132 -30 218 -93t136.5 -151t70 -197.5t19.5 -233.5v-114q0 -34 -2.5 -78.5t-10 -93.5t-21 -99.5t-34.5 -95.5q94 52 146.5 158t52.5 258v528
q0 91 20 166t56.5 130.5t88 89.5t113.5 42q31 4 62 -2t57.5 -21t45.5 -38t27 -54q6 -26 4.5 -52t-10.5 -49t-25.5 -41.5t-38.5 -27.5q-38 -16 -54.5 -60t-16.5 -122v-461z" />
    <glyph glyph-name="eightthai" unicode="&#xe58;" horiz-adv-x="1851" 
d="M1252 1454q41 0 70.5 8.5t50.5 24.5t34 39t20 51q10 34 32 59.5t50.5 41t62.5 19.5t68 -5q36 -9 62 -31t41 -51.5t18.5 -63.5t-6.5 -68q-19 -63 -54 -121t-93 -102t-142 -70t-200 -26h-422q-97 0 -166.5 -26.5t-114.5 -71t-66.5 -101t-21.5 -116.5v-308q0 -46 16.5 -89.5
t43.5 -78.5t61 -59t68 -31l274 217l266 -217q37 1 69 14t56 40.5t37.5 73t13.5 113.5q0 29 -3 59.5t-16.5 56t-42 43.5t-78.5 23q-27 2 -50.5 13.5t-41 29.5t-27.5 41.5t-10 50.5t9.5 50t26.5 40.5t40.5 28t52.5 12.5q101 6 175.5 -11.5t127 -50.5t85.5 -78.5t51.5 -97
t25.5 -106t7 -104.5q0 -217 -87.5 -349t-279.5 -175q-22 -5 -54.5 -10.5t-68.5 -5t-73 10t-68 34.5l-143 114l-142 -113q-29 -23 -58 -31.5t-55.5 -9.5t-50 3t-39.5 8q-112 25 -197 77t-142 123.5t-86 158.5t-29 182v263q0 152 46.5 273.5t139 206t229.5 130t318 45.5h380z
" />
    <glyph glyph-name="ninethai" unicode="&#xe59;" horiz-adv-x="1884" 
d="M938 987q-50 99 -110 152t-144 53q-46 0 -85.5 -19t-69 -66t-46 -126t-16.5 -199v-114q0 -69 2 -140t18 -128.5t51 -93.5t101 -36q17 0 46 1t67 5q32 3 58.5 -7t45 -29t29 -45t10.5 -56q0 -27 -9.5 -51.5t-26.5 -43.5t-39.5 -32t-49.5 -18q-139 -25 -240.5 -10.5
t-172.5 58.5t-115.5 112.5t-69 151t-33 175t-8.5 183.5v110q0 174 28 305.5t93.5 220.5t172 134t263.5 45q29 0 63.5 -0.5t71 -4t72.5 -11t68 -21.5q27 -19 54.5 -41.5t55.5 -57.5l111 107q12 12 31 20.5t47 8.5h82q82 0 122 27.5t53 91.5q7 35 28.5 60.5t51 40.5t64.5 19
t69 -5q36 -9 61.5 -30.5t40 -50t17.5 -62t-7 -67.5q-19 -67 -52 -124t-89.5 -98.5t-141 -65t-205.5 -23.5q-12 0 -28 -9t-32.5 -22.5t-32.5 -30.5t-30 -32l435 -891q14 -29 15.5 -60.5t-8.5 -60t-31 -52.5t-51 -38q-29 -14 -60.5 -15.5t-60 8.5t-52.5 30.5t-38 49.5z" />
    <glyph glyph-name="angkhankhuthai" unicode="&#xe5a;" horiz-adv-x="2306" 
d="M1581 138q0 -35 -13 -64t-36 -50t-53.5 -32.5t-65.5 -11.5t-65.5 11.5t-53.5 32.5t-36 50t-13 64v644q-80 -68 -190 -101.5t-240 -33.5q-172 0 -302.5 39t-218 111.5t-131.5 174.5t-44 228q0 90 24 160.5t65 124t96.5 90.5t118.5 60t129.5 33.5t131.5 10.5h169
q29 0 53 -11t41.5 -30t27 -45t9.5 -55t-9.5 -55t-27 -45t-41.5 -30t-53 -11h-169q-111 0 -164 -49.5t-53 -151.5q0 -49 15 -97.5t53 -86.5t103 -62t165 -24q215 0 328.5 79t113.5 248v288q0 35 13 64t36 50t53.5 32.5t65.5 11.5t65.5 -11.5t53.5 -32.5t36 -50t13 -64v-1403z
M1815 1541q0 35 13 64t36 50t53.5 32.5t65.5 11.5t65.5 -11.5t53.5 -32.5t36 -50t13 -64v-1403q0 -35 -13 -64t-36 -50t-53.5 -32.5t-65.5 -11.5t-65.5 11.5t-53.5 32.5t-36 50t-13 64v1403z" />
    <glyph glyph-name="khomutthai" unicode="&#xe5b;" horiz-adv-x="3600" 
d="M1933 1304q65 -80 118 -156.5t91 -135.5q19 27 41 59.5t45 67.5t48 71.5t50 69.5q12 16 30 25t37 9.5t36 -7.5t28 -24q49 -72 94.5 -144.5t78.5 -130.5l127 176h536q34 0 64 -13t52 -35t35 -52t13 -64t-13 -64t-35 -52t-52 -35t-64 -13h-430q-48 -57 -97.5 -141
t-100.5 -180q-20 -34 -48.5 -32.5t-46.5 34.5q-49 97 -94 176.5t-88 146.5q-41 -59 -87 -148t-94 -208q-12 -24 -32 -35.5t-41 -10.5t-40 14.5t-28 40.5q-43 106 -85 190.5t-80 144.5q-26 -183 -104.5 -338.5t-196.5 -268.5t-269 -177t-323 -64q-136 0 -251.5 35
t-209.5 96.5t-165.5 145t-120 180t-73 202.5t-24.5 213q0 94 21.5 191t64 188t104.5 170.5t143.5 138.5t181.5 93.5t218 34.5q138 0 245 -39.5t183.5 -107.5t123 -158t64.5 -191q6 -33 -0.5 -63.5t-23.5 -55t-43 -42t-58 -23.5t-62.5 0t-55.5 23t-42.5 42.5t-23.5 58.5
q-25 112 -94 170t-180 66q-102 0 -181.5 -40.5t-135 -110t-84.5 -163.5t-29 -202q0 -101 38 -195.5t107 -167.5t164.5 -117t210.5 -44q107 0 193 32.5t152 90.5t114 138.5t80 177t49 205t21 222.5q0 36 13.5 67.5t37 55t54.5 37t67 13.5q81 0 132 -63z" />
    <glyph glyph-name="ZWSP" unicode="&#x200b;" 
 />
    <glyph glyph-name="endash" unicode="&#x2013;" horiz-adv-x="1405" 
d="M176 644q-75 0 -120.5 37t-45.5 100t45.5 100t120.5 37h1053q75 0 120.5 -37t45.5 -100t-45.5 -100t-120.5 -37h-1053z" />
    <glyph glyph-name="emdash" unicode="&#x2014;" horiz-adv-x="2777" 
d="M176 644q-75 0 -120.5 37t-45.5 100t45.5 100t120.5 37h2424q75 0 120.5 -37t45.5 -100t-45.5 -100t-120.5 -37h-2424z" />
    <glyph glyph-name="quoteleft" unicode="&#x2018;" horiz-adv-x="819" 
d="M639 1426q0 -44 -17 -82.5t-46 -67.5t-67.5 -46t-82.5 -17q-64 0 -111 23.5t-77.5 65.5t-45.5 99.5t-15 125.5q0 60 8.5 112.5t25.5 99.5t42.5 90t60.5 84q19 22 46.5 47.5t60 47t67.5 35.5t68 14q41 0 62 -21t21 -50q0 -16 -7.5 -28.5t-20 -24t-29.5 -23t-35 -23.5
q-29 -20 -60 -42.5t-57.5 -55t-45.5 -79.5t-25 -114q22 16 45 22.5t49 6.5q45 0 79.5 -16.5t58 -44t36 -63.5t12.5 -75z" />
    <glyph glyph-name="quoteright" unicode="&#x2019;" horiz-adv-x="819" 
d="M180 1844q0 44 17 82.5t46 67.5t67.5 46t82.5 17q64 0 110.5 -24t77.5 -66t46 -99.5t15 -124.5q0 -120 -34 -212t-103 -174q-19 -23 -46.5 -48t-60 -46.5t-67.5 -35.5t-68 -14q-41 0 -62 21t-21 50q0 31 27 52.5t65 46.5q27 18 58 40.5t58 55.5t46.5 80t25.5 115
q-22 -16 -45 -22.5t-49 -6.5q-45 0 -79.5 16.5t-58 44t-36 63.5t-12.5 75z" />
    <glyph glyph-name="quotedblleft" unicode="&#x201c;" horiz-adv-x="1302" 
d="M611 1426q0 -44 -17 -82.5t-46 -67.5t-67.5 -46t-82.5 -17q-64 0 -111 23.5t-77.5 65.5t-45.5 99.5t-15 125.5q0 60 8.5 112.5t25.5 99.5t42.5 90t60.5 84q19 22 46.5 47.5t60 47t67.5 35.5t68 14q41 0 62 -21t21 -50q0 -16 -7 -29t-19.5 -24.5t-29.5 -22.5t-36 -23
q-30 -18 -61 -40.5t-57.5 -55.5t-45 -80.5t-24.5 -114.5q22 16 45 22.5t49 6.5q45 0 79.5 -16.5t58 -44t36 -63.5t12.5 -75zM1150 1426q0 -44 -17 -82.5t-46 -67.5t-67.5 -46t-82.5 -17q-64 0 -111 23.5t-77.5 65.5t-45.5 99.5t-15 125.5q0 60 8.5 112.5t25.5 99.5t42.5 90
t60.5 84q19 22 46.5 47.5t60 47t67.5 35.5t68 14q41 0 62 -21t21 -50q0 -16 -7 -29t-19.5 -24.5t-29.5 -22.5t-36 -23q-30 -18 -61 -40.5t-57.5 -55.5t-45 -80.5t-24.5 -114.5q22 16 45 22.5t49 6.5q45 0 79.5 -16.5t58 -44t36 -63.5t12.5 -75z" />
    <glyph glyph-name="quotedblright" unicode="&#x201d;" horiz-adv-x="1302" 
d="M690 1844q0 44 17 82.5t46 67.5t67.5 46t82.5 17q64 0 110.5 -24t77.5 -66t46 -99.5t15 -124.5q0 -120 -34 -212t-103 -174q-19 -23 -46.5 -48t-60 -46.5t-67.5 -35.5t-68 -14q-41 0 -62 21t-21 50q0 31 27 53.5t65 45.5q30 18 61 40.5t57.5 55.5t45 80t24.5 115
q-22 -16 -45 -22.5t-49 -6.5q-45 0 -79.5 16.5t-58 44t-36 63.5t-12.5 75zM151 1844q0 44 17 82.5t46 67.5t67.5 46t82.5 17q64 0 110.5 -24t77.5 -66t46 -99.5t15 -124.5q0 -120 -34 -212t-103 -174q-19 -23 -46.5 -48t-60 -46.5t-67.5 -35.5t-68 -14q-41 0 -62 21t-21 50
q0 31 27 53.5t65 45.5q30 18 61 40.5t57.5 55.5t45 80t24.5 115q-22 -16 -45 -22.5t-49 -6.5q-45 0 -79.5 16.5t-58 44t-36 63.5t-12.5 75z" />
    <glyph glyph-name="bullet" unicode="&#x2022;" horiz-adv-x="1090" 
d="M78 860q0 88 36.5 168t99.5 141t147.5 97.5t179.5 36.5q97 0 182.5 -36.5t149.5 -97.5t101.5 -141t37.5 -168q0 -94 -37.5 -176t-101.5 -143t-149.5 -96t-182.5 -35q-95 0 -179.5 35t-147.5 96t-99.5 143t-36.5 176z" />
    <glyph glyph-name="Euro" unicode="&#x20ac;" horiz-adv-x="2190" 
d="M1219 1282q24 0 46 -2t39 -9.5t27 -23t10 -43.5q0 -29 -9.5 -46.5t-26 -26.5t-39 -12t-47.5 -3h-534q-2 -26 -3.5 -53t-1.5 -56q0 -30 1 -58.5t4 -56.5h534q24 0 46 -2t39 -9.5t27 -23t10 -43.5q0 -29 -9.5 -46.5t-26 -26.5t-39 -12t-47.5 -3h-506q27 -106 77.5 -192.5
t125 -148.5t173 -96t222.5 -34q85 0 149 23.5t112.5 60.5t86 82t70.5 89q18 24 38.5 48.5t42 44.5t44 33t46.5 15q36 2 66.5 -8t53.5 -29.5t38 -46.5t19 -59q9 -71 -15 -139t-74.5 -129t-122.5 -113t-160.5 -90t-188.5 -59t-205 -21q-197 0 -360 48.5t-287.5 145
t-206.5 240.5t-116 335h-119q-23 0 -43.5 2.5t-37 11t-26 25t-9.5 43.5q0 28 10.5 45t27.5 25.5t38.5 11t44.5 2.5h94q-3 52 -3 109q0 29 1.5 57.5t3.5 57.5h-101q-23 0 -43.5 2.5t-37 11t-26 25t-9.5 43.5q0 28 10.5 45t27.5 25.5t38.5 11t44.5 2.5h121q36 164 115 304.5
t198 243t278 161t356 58.5q126 0 233.5 -24t194.5 -64t153 -92t110.5 -107.5t67.5 -111t23 -101.5q0 -81 -39.5 -127t-122.5 -46q-38 0 -66 11.5t-51 30.5t-42.5 44.5t-38.5 52.5h1q-30 42 -63.5 84t-81.5 75.5t-115 55t-163 21.5q-94 0 -184.5 -28t-167.5 -86t-136.5 -146
t-92.5 -209h505z" />
    <glyph glyph-name="trademark" unicode="&#x2122;" horiz-adv-x="2547" 
d="M443 1828h-169q-26 0 -43.5 8t-29 20.5t-16.5 27.5t-5 29t5 29.5t16.5 28t29 20.5t43.5 8h580q26 0 44 -8t28.5 -20.5t15 -28t4.5 -29.5t-4.5 -29t-15 -27.5t-28.5 -20.5t-44 -8h-171v-733q0 -41 -13.5 -66.5t-32.5 -40.5t-39.5 -20.5t-33.5 -5.5q-14 0 -34.5 5.5
t-39.5 20.5t-33 40.5t-14 66.5v733zM2023 1637l-9 2q-25 -67 -51 -138.5t-52 -144t-52 -144.5t-51 -139q-21 -51 -51.5 -81t-70.5 -30q-39 0 -69.5 30t-51.5 81l-206 566l-9 -2v-542q0 -41 -14 -66.5t-33 -40.5t-40 -20.5t-34 -5.5q-14 0 -34.5 5.5t-39.5 20.5t-33 40.5
t-14 66.5v727q0 57 17 94t43.5 58.5t57 30t57.5 8.5q82 0 139.5 -42.5t92.5 -125.5l171 -491q20 57 42 119.5t44 126t44 126.5t42 120q35 82 92 124.5t139 42.5q27 0 57.5 -8.5t57 -30t43.5 -58.5t17 -94v-727q0 -41 -14 -66.5t-33 -40.5t-40 -20.5t-34 -5.5q-14 0 -34 5.5
t-39.5 20.5t-33 40.5t-13.5 66.5v542z" />
    <glyph glyph-name="uni25CC" unicode="&#x25cc;" horiz-adv-x="1868" 
d="M569 455l66 159q22 -34 47 -61.5t59 -48.5zM934 1303l74 -156q-41 9 -83 7t-73 -11zM934 303l-74 152q37 -10 68.5 -9.5t75.5 13.5zM1434 803l-156 -70q12 34 12.5 70.5t-8.5 77.5zM434 807l160 78q-6 -37 -7.5 -76.5t7.5 -79.5zM598 1159l164 -57q-43 -22 -73.5 -47
t-49.5 -56zM1274 451l-152 49q34 21 59.5 46t47.5 56zM1298 1159l-69 -164q-22 34 -51 61.5t-60 49.5z" />
    <glyph glyph-name="thothannobasethai" unicode="&#xf700;" horiz-adv-x="1614" 
d="M1487 1126q-2 -98 -30.5 -215.5t-73.5 -243.5t-102 -256.5t-115 -254.5q-35 -81 -107.5 -128.5t-167.5 -47.5q-98 0 -171.5 45.5t-104.5 133.5l-209 586h-123q-28 0 -50.5 10.5t-38.5 28.5t-25 42t-9 52t9 52.5t25 42.5t38.5 28.5t50.5 10.5h308q28 0 46.5 -9t31 -25
t21.5 -37t18 -46l185 -543q38 89 79.5 190t76 200.5t57 192.5t24.5 167q4 164 -82.5 246t-256.5 82q-119 0 -193.5 -46t-111.5 -151q-12 -35 -40 -56t-62.5 -29.5t-71 -4.5t-66.5 20q-32 17 -53.5 42t-31 55t-6.5 63t20 65q85 158 247.5 243t400.5 85q72 0 143.5 -9.5
t139.5 -31.5q51 10 81 42.5t44 73.5q14 33 41 53.5t59.5 29t68 4t66.5 -22.5q31 -17 52.5 -44.5t31 -59.5t5.5 -66t-23 -65q-49 -82 -152 -121q53 -65 81.5 -157t25.5 -216z" />
    <glyph glyph-name="yoyingnobasethai" unicode="&#xf70f;" horiz-adv-x="2650" 
d="M1544 582q0 -81 25.5 -143t68.5 -104t99.5 -63.5t117.5 -21.5q60 0 114 19.5t95.5 60t65.5 103.5t24 149v957q0 35 13.5 64.5t36.5 50.5t54 33t66 12t66 -12t54 -33t36.5 -50.5t13.5 -64.5v-986q0 -152 -53.5 -264t-143 -185.5t-204.5 -109t-238 -35.5q-127 0 -244.5 38
t-208 113t-144.5 186t-54 257v463q0 72 -20 143t-67 128t-123.5 92.5t-190.5 37.5q-91 1 -161 -19.5t-120 -55t-80 -78.5t-41 -88q62 -44 90.5 -124t28.5 -180v-598h73q28 0 51.5 -10.5t40.5 -29.5t26 -44t9 -53q0 -29 -9 -53.5t-26 -43.5t-40.5 -29.5t-51.5 -10.5h-272
q-29 0 -53.5 10.5t-43.5 29.5t-29.5 43.5t-10.5 53.5v768q0 44 -9.5 91t-37.5 88q-25 36 -43 57.5t-26 41t-4.5 42t21.5 61.5q38 84 99.5 162t149 137.5t204 95t265.5 35.5q140 0 250 -27.5t192 -76t139 -115.5t92.5 -145.5t51.5 -166t16 -177.5v-426z" />
    <glyph glyph-name="saraulowthai" unicode="&#xf718;" 
d="M-156 -1191q0 -33 -12.5 -60t-33.5 -46.5t-49.5 -30.5t-61.5 -11t-61.5 11t-50 30.5t-34 46.5t-12.5 60v250h-68q-27 0 -48.5 10t-37.5 27.5t-24.5 41t-8.5 50.5t8.5 50.5t24.5 41t37.5 27.5t48.5 10h264q27 0 48.5 -10t37.5 -27.5t24.5 -41t8.5 -50.5v-379z" />
    <glyph glyph-name="sarauulowthai" unicode="&#xf719;" 
d="M-475 -811q0 33 12.5 60t34 46.5t50 30t61.5 10.5t61.5 -10.5t49.5 -30t33.5 -46.5t12.5 -60v-102q0 -87 -23.5 -164.5t-77.5 -135.5t-140.5 -92t-212.5 -34q-119 0 -203.5 28.5t-140 81t-83.5 125.5t-32 162h-64q-27 0 -48.5 10t-37.5 27.5t-24.5 41t-8.5 50.5t8.5 50.5
t24.5 41t37.5 27.5t48.5 10h264q27 0 48.5 -10t37.5 -27.5t24.5 -41t8.5 -50.5v-100q0 -80 34 -122t106 -42q68 0 103.5 42t35.5 122v102z" />
    <glyph glyph-name="phinthulowthai" unicode="&#xf71a;" 
d="M-573 -877q0 48 18 89.5t49 73t72.5 49.5t89.5 18q46 0 87 -18t71.5 -49.5t48.5 -73t18 -89.5q0 -46 -18 -87t-48.5 -71.5t-71.5 -48.5t-87 -18q-48 0 -89.5 18t-72.5 48.5t-49 71.5t-18 87z" />
    <glyph glyph-name="lochula.short" unicode="&#xf71d;" horiz-adv-x="2224" 
d="M1933 1541q43 -38 68 -86.5t34.5 -103t6 -113.5t-18.5 -119l-235 -958q-9 -38 -30.5 -71t-52 -57t-68.5 -38t-81 -14q-41 0 -77 13t-65.5 36t-51 54t-32.5 68l-253 812l-245 -810q-12 -38 -33.5 -70t-50.5 -55t-65.5 -35.5t-78.5 -12.5q-40 0 -77 13t-67 36t-51 54
t-29 68l-297 1337q-8 36 -1 70.5t25.5 62.5t47.5 47.5t65 26.5t72 1.5t66 -22.5t51.5 -44.5t27.5 -65.5l186 -1118l245 832q10 36 30 67t48 53.5t62.5 35.5t74.5 13q41 0 76 -13.5t63 -37.5t48 -56.5t32 -70.5l254 -827q17 85 32 164t29.5 156.5t29.5 155.5t32 159
q13 62 17 104.5t4 80.5q0 69 -27 112.5t-97 58.5q-44 10 -72.5 45t-28.5 81q0 24 8.5 45.5t23.5 39t35 29t43 14.5q38 6 75.5 17t70.5 29.5t60.5 45.5t45.5 65q15 33 37 60t50 46t60.5 28t67.5 5q43 -5 73 -24t47.5 -47t22.5 -61.5t-1 -68.5q-9 -47 -34.5 -85.5t-61.5 -68.5
t-79 -52.5t-86 -35.5z" />
    <glyph glyph-name="rulakkhangyao" unicode="&#xf881;" horiz-adv-x="2601" 
d="M184 909q0 44 -9.5 89t-37.5 86q-25 36 -43 57.5t-26 41t-4.5 42t21.5 61.5q38 84 96 162t145 137.5t207.5 95t285.5 35.5q203 0 342 -49t228 -135q86 90 203 135t247 45t241 -35.5t192 -108t127 -183t46 -259.5v-1533q0 -35 -13 -64t-36 -50t-53.5 -32.5t-65.5 -11.5
t-65.5 11.5t-53.5 32.5t-36 50t-13 64v1476q0 181 -69 264.5t-201 83.5q-55 0 -101.5 -17t-81.5 -50t-57.5 -82t-29.5 -113q12 -68 12 -143v-1419q0 -35 -13 -64t-36 -50t-53.5 -32.5t-65.5 -11.5t-65.5 11.5t-53.5 32.5t-36 50t-13 64v1447q0 22 -1 44.5t-7 50.5
q-12 57 -40.5 109.5t-78 93t-123 65.5t-176.5 27q-104 1 -179 -23t-125 -60t-77.5 -77.5t-36.5 -73.5q31 -21 53.5 -52t37 -68.5t21.5 -81t7 -89.5v-631h73q28 0 51.5 -10.5t40.5 -29.5t26 -44t9 -53q0 -29 -9 -53.5t-26 -43.5t-40.5 -29.5t-51.5 -10.5h-272
q-29 0 -53.5 10.5t-43.5 29.5t-29.5 43.5t-10.5 53.5v772z" />
    <glyph glyph-name="lulakkhangyao" unicode="&#xf882;" horiz-adv-x="2707" 
d="M254 909q0 44 -9.5 89t-37.5 86q-25 36 -43 57.5t-26 41t-4.5 42t21.5 61.5q38 84 98.5 162t150.5 137.5t213 95t288 35.5q103 0 189.5 -13.5t158.5 -38t130 -59t104 -77.5q87 93 206 138.5t253 45.5q130 0 241 -35.5t192 -108t127 -183t46 -259.5v-1533q0 -35 -13 -64
t-36 -50t-53.5 -32.5t-65.5 -11.5t-65.5 11.5t-53.5 32.5t-36 50t-13 64v1476q0 181 -69 264.5t-201 83.5q-118 0 -189.5 -70t-81.5 -212q3 -31 5.5 -61.5t2.5 -61.5v-1419q0 -35 -13.5 -64t-36.5 -50t-54 -32.5t-66 -11.5t-66 11.5t-54 32.5t-36.5 50t-13.5 64v1447
q0 71 -22 140t-73 124t-135 89.5t-208 36.5q-103 1 -180 -22.5t-130.5 -59.5t-84 -77t-39.5 -75q53 -46 86 -123.5t33 -167.5v-768q0 -29 -10.5 -53.5t-29.5 -43.5t-44 -29.5t-53 -10.5h-272q-29 0 -52 10.5t-40 29.5t-26 43.5t-9 53.5q0 28 9 53t26 44t40 29.5t52 10.5h73
v635z" />
    <glyph glyph-name="yamakkanleftthai" 
d="M-1326 2099q17 110 91 183.5t192 105.5q12 49 38.5 94t69.5 80.5t101.5 58t134.5 25.5q27 1 52.5 -6t45.5 -21.5t34 -35t18 -47.5t-2 -53t-21 -46.5t-37 -33.5t-49 -13q-37 0 -61.5 -12.5t-39 -34t-20.5 -50.5t-6 -61q0 -24 -8 -38t-20 -21t-26.5 -8.5t-27.5 -1.5
q-81 0 -121 -32.5t-48 -98.5q-4 -31 -20 -54.5t-40 -38t-54.5 -19.5t-63.5 0q-30 5 -53.5 22t-38 41.5t-20 54.5t-0.5 61z" />
    <glyph glyph-name="saraamleft" horiz-adv-x="1410" 
d="M-1085 2224q0 -23 9 -44t25 -36.5t36.5 -25t43.5 -9.5t44 9.5t36.5 25t25 36.5t9.5 44t-9.5 44t-25 36.5t-36.5 25t-44 9.5t-43.5 -9.5t-36.5 -25t-25 -36.5t-9 -44zM-1290 2224q0 66 25 124t68.5 101.5t101.5 69t124 25.5q64 0 122.5 -25.5t102 -69t69.5 -101.5t26 -124
t-26 -124t-69.5 -101.5t-102 -68.5t-122.5 -25q-66 0 -124 25t-101.5 68.5t-68.5 101.5t-25 124zM1254 138q0 -35 -13 -64t-36 -50t-53.5 -32.5t-65.5 -11.5t-65.5 11.5t-53.5 32.5t-36 50t-13 64v931q0 181 -69 264.5t-201 83.5q-93 0 -157.5 -46t-93.5 -135
q-11 -34 -33 -61t-51 -44t-63 -23t-69 3q-38 9 -66 30.5t-45 50.5t-21 63t7 69q31 97 91.5 170t139.5 121.5t172 72.5t189 24q130 0 241 -35.5t192 -108t127 -183t46 -259.5v-988z" />
    <glyph glyph-name="uni0E33.alt1" horiz-adv-x="1410" 
d="M-1085 2224q0 -23 9 -44t25 -36.5t36.5 -25t43.5 -9.5t44 9.5t36.5 25t25 36.5t9.5 44t-9.5 44t-25 36.5t-36.5 25t-44 9.5t-43.5 -9.5t-36.5 -25t-25 -36.5t-9 -44zM-1290 2224q0 66 25 124t68.5 101.5t101.5 69t124 25.5q64 0 122.5 -25.5t102 -69t69.5 -101.5t26 -124
t-26 -124t-69.5 -101.5t-102 -68.5t-122.5 -25q-66 0 -124 25t-101.5 68.5t-68.5 101.5t-25 124zM1254 138q0 -35 -13 -64t-36 -50t-53.5 -32.5t-65.5 -11.5t-65.5 11.5t-53.5 32.5t-36 50t-13 64v931q0 181 -69 264.5t-201 83.5q-93 0 -157.5 -46t-93.5 -135
q-11 -34 -33 -61t-51 -44t-63 -23t-69 3q-38 9 -66 30.5t-45 50.5t-21 63t7 69q31 97 91.5 170t139.5 121.5t172 72.5t189 24q130 0 241 -35.5t192 -108t127 -183t46 -259.5v-988z" />
    <glyph glyph-name="saraithai.alt1" 
d="M-1229 1933q-28 0 -51 10.5t-39.5 28.5t-25.5 42t-9 52t9 52.5t25.5 42.5t39.5 28.5t51 10.5h968q28 0 51 -10.5t39.5 -28.5t25.5 -42.5t9 -52.5t-9 -52t-25.5 -42t-39.5 -28.5t-51 -10.5h-968z" />
    <glyph glyph-name="saraiithai.alt1" 
d="M-1229 1933q-28 0 -51 10.5t-39.5 28.5t-25.5 42t-9 52t9 52.5t25.5 42.5t39.5 28.5t51 10.5h754v107q0 33 12.5 60.5t34.5 47.5t51 31t62 11t62 -11t50.5 -31t34 -47.5t12.5 -60.5v-224q0 -33 -12.5 -60.5t-34 -47.5t-50.5 -31t-62 -11h-914z" />
    <glyph glyph-name="sarauethai.alt1" 
d="M-1229 1933q-28 0 -51 10.5t-39.5 28.5t-25.5 42t-9 52t9 52.5t25.5 42.5t39.5 28.5t51 10.5h520v28q0 61 23 115t63 94t93.5 63t115.5 23q61 0 115 -23t94 -63t63 -94t23 -115q0 -62 -23 -115.5t-63 -93.5t-94 -63t-115 -23h-815zM-520 2228q0 -21 8.5 -40t23 -32.5
t34 -21.5t40.5 -8q22 0 41.5 8t34 21.5t23 32.5t8.5 40q0 23 -8.5 42.5t-23 34t-34 22.5t-41.5 8q-21 0 -40.5 -8t-34 -22.5t-23 -34t-8.5 -42.5z" />
    <glyph glyph-name="saraueethai.alt1" 
d="M-1229 1933q-28 0 -51 10.5t-39.5 28.5t-25.5 42t-9 52t9 52.5t25.5 42.5t39.5 28.5t51 10.5h316v115q0 31 12 57.5t33 45t48.5 29t58.5 10.5t58.5 -10.5t48 -29t32.5 -45t12 -57.5v-115h151v115q0 31 12 57.5t33 45t48.5 29t58.5 10.5t58.5 -10.5t48 -29t32.5 -45
t12 -57.5v-240q0 -32 -12 -58t-32.5 -44.5t-48 -29t-58.5 -10.5h-922z" />
    <glyph glyph-name="saraithai.alt2" 
d="M-1998 1933q-28 0 -51 10.5t-39.5 28.5t-25.5 42t-9 52t9 52.5t25.5 42.5t39.5 28.5t51 10.5h1317q28 0 51 -10.5t39.5 -28.5t25.5 -42.5t9 -52.5t-9 -52t-25.5 -42t-39.5 -28.5t-51 -10.5h-1317z" />
    <glyph glyph-name="saraiithai.alt2" 
d="M-1998 1933q-28 0 -51 10.5t-39.5 28.5t-25.5 42t-9 52t9 52.5t25.5 42.5t39.5 28.5t51 10.5h1092v107q0 33 12.5 60.5t34.5 47.5t51 31t62 11t62 -11t50.5 -31t34 -47.5t12.5 -60.5v-224q0 -33 -12.5 -60.5t-34 -47.5t-50.5 -31t-62 -11h-1252z" />
    <glyph glyph-name="sarauethai.alt2" 
d="M-1998 1933q-28 0 -51 10.5t-39.5 28.5t-25.5 42t-9 52t9 52.5t25.5 42.5t39.5 28.5t51 10.5h863v28q0 61 23 115t63 94t93.5 63t115.5 23q61 0 114.5 -23t92.5 -63t61.5 -94t22.5 -115q0 -62 -22.5 -115.5t-61.5 -93.5t-92.5 -63t-114.5 -23h-1158zM-946 2228
q0 -43 30 -72.5t76 -29.5q44 0 73.5 29.5t29.5 72.5q0 47 -29.5 77t-73.5 30q-46 0 -76 -30t-30 -77z" />
    <glyph glyph-name="saraueethai.alt2" 
d="M-1998 1933q-28 0 -51 10.5t-39.5 28.5t-25.5 42t-9 52t9 52.5t25.5 42.5t39.5 28.5t51 10.5h654v115q0 31 12 57.5t33 45t48.5 29t58.5 10.5t58.5 -10.5t48 -29t32.5 -45t12 -57.5v-115h151v115q0 31 12 57.5t33 45t48.5 29t58.5 10.5t58.5 -10.5t48 -29t32.5 -45
t12 -57.5v-240q0 -32 -12 -58t-32.5 -44.5t-48 -29t-58.5 -10.5h-1260z" />
    <glyph glyph-name="maiekthai.alt2" 
d="M-587 2752q0 -32 -12 -59t-33 -46.5t-49.5 -30t-60.5 -10.5t-60.5 10.5t-49.5 30t-33.5 46.5t-12.5 59v249q0 32 12.5 59t33.5 46.5t49.5 30t60.5 10.5t60.5 -10.5t49.5 -30t33 -46.5t12 -59v-249z" />
    <glyph glyph-name="maithothai.alt2" 
d="M-360 2943q-29 -68 -83 -126.5t-133 -102t-182.5 -68.5t-232.5 -25h-108q-26 0 -48.5 10t-39.5 27t-27 39.5t-10 48.5v125h-61q-26 0 -48.5 10t-39.5 27t-27 39.5t-10 48.5t10 48.5t27 39.5t39.5 27t48.5 10h202q26 0 48.5 -10t39.5 -27t27 -39.5t10 -48.5v-125
q67 1 122 15t97 38t70.5 56.5t42.5 70.5q11 27 31.5 47t46 31t54 11.5t56.5 -10.5t48 -31.5t30.5 -46t11 -54t-11.5 -55.5z" />
    <glyph glyph-name="maitrithai.alt2" 
d="M-439 3028q7 26 23.5 46t38 32.5t48 16.5t53.5 -2q32 -8 54 -24t33.5 -37t13.5 -46.5t-6 -50.5q-19 -61 -51 -118.5t-74 -104t-91.5 -78t-103.5 -41.5h-108q-38 0 -62 22t-27 57q-4 46 -19 78t-50 32q-27 0 -42 -16t-18 -43q-4 -34 -26.5 -57t-60.5 -23q-36 0 -64 20
t-30 60q-2 29 -17 44t-41 15q-32 0 -46.5 -23.5t-16.5 -67.5q-2 -59 -38 -87.5t-88 -28.5q-58 0 -90.5 34t-32.5 82q0 87 24 150.5t63 105t89.5 62t103.5 20.5q59 0 103 -24t78 -65q36 38 82.5 63.5t106.5 25.5q36 0 71.5 -10.5t65.5 -31.5t52 -51.5t31 -70.5q18 22 39 60
t30 75z" />
    <glyph glyph-name="maichattawathai.alt2" 
d="M-590 2747q0 -32 -12 -58t-33 -44.5t-48.5 -29t-58.5 -10.5t-58.5 10.5t-48 29t-32.5 44.5t-12 58v83h-147q-25 0 -45.5 9.5t-35 26t-22.5 38.5t-8 47t8 47t22.5 38.5t35 26t45.5 9.5h147v83q0 31 12 57.5t33 45t48.5 29t58.5 10.5t58.5 -10.5t48 -29t32.5 -45t12 -57.5
v-83h147q25 0 45.5 -9.5t35 -26t22.5 -38.5t8 -47t-8 -47t-22.5 -38.5t-35 -26t-45.5 -9.5h-147v-83z" />
    <glyph glyph-name="saraithai.alt3" 
d="M-1966 1933q-28 0 -51 10.5t-39.5 28.5t-25.5 42t-9 52t9 52.5t25.5 42.5t39.5 28.5t51 10.5h1715q28 0 51 -10.5t39.5 -28.5t25.5 -42.5t9 -52.5t-9 -52t-25.5 -42t-39.5 -28.5t-51 -10.5h-1715z" />
    <glyph glyph-name="saraiithai.alt3" 
d="M-1966 1933q-28 0 -51 10.5t-39.5 28.5t-25.5 42t-9 52t9 52.5t25.5 42.5t39.5 28.5t51 10.5h1491v107q0 33 12.5 60.5t34.5 47.5t51 31t62 11t62 -11t50.5 -31t34 -47.5t12.5 -60.5v-224q0 -33 -12.5 -60.5t-34 -47.5t-50.5 -31t-62 -11h-1651z" />
    <glyph glyph-name="sarauethai.alt3" 
d="M-520 2228q0 -21 8.5 -40t23 -32.5t34 -21.5t40.5 -8q22 0 41.5 8t34 21.5t23 32.5t8.5 40q0 23 -8.5 42.5t-23 34t-34 22.5t-41.5 8q-21 0 -40.5 -8t-34 -22.5t-23 -34t-8.5 -42.5zM-1966 1933q-28 0 -51 10.5t-39.5 28.5t-25.5 42t-9 52t9 52.5t25.5 42.5t39.5 28.5
t51 10.5h1257v28q0 61 23 115t63 94t93.5 63t115.5 23q61 0 115 -23t94 -63t63 -94t23 -115q0 -62 -23 -115.5t-63 -93.5t-94 -63t-115 -23h-1552z" />
    <glyph glyph-name="saraueethai.alt3" 
d="M-1966 1933q-28 0 -51 10.5t-39.5 28.5t-25.5 42t-9 52t9 52.5t25.5 42.5t39.5 28.5t51 10.5h1053v115q0 31 12 57.5t33 45t48.5 29t58.5 10.5t58.5 -10.5t48 -29t32.5 -45t12 -57.5v-115h151v115q0 31 12 57.5t33 45t48.5 29t58.5 10.5t58.5 -10.5t48 -29t32.5 -45
t12 -57.5v-240q0 -32 -12 -58t-32.5 -44.5t-48 -29t-58.5 -10.5h-1659z" />
    <glyph glyph-name="maiekthai.alt4" 
d="M-160 2544q0 -32 -12 -59t-33 -46.5t-49.5 -30t-60.5 -10.5t-60.5 10.5t-49.5 30t-33.5 46.5t-12.5 59v249q0 32 12.5 59t33.5 46.5t49.5 30t60.5 10.5t60.5 -10.5t49.5 -30t33 -46.5t12 -59v-249z" />
    <glyph glyph-name="maithothai.alt4" 
d="M86 2739q-29 -68 -83 -126.5t-133 -102t-182.5 -68.5t-232.5 -25h-108q-26 0 -48.5 10t-39.5 27t-27 39.5t-10 48.5v125h-61q-26 0 -48.5 10t-39.5 27t-27 39.5t-10 48.5t10 48.5t27 39.5t39.5 27t48.5 10h202q26 0 48.5 -10t39.5 -27t27 -39.5t10 -48.5v-125
q67 1 122 15t97 38t70.5 56.5t42.5 70.5q11 27 31.5 47t46 31t54 11.5t56.5 -10.5t48 -31.5t30.5 -46t11 -54t-11.5 -55.5z" />
    <glyph glyph-name="maitrithai.alt4" 
d="M-173 2822q7 26 23.5 46t38 32.5t48 16.5t53.5 -2q32 -8 54 -24t33.5 -37t13.5 -46.5t-6 -50.5q-19 -61 -51 -118.5t-74 -104t-91.5 -78t-103.5 -41.5h-108q-38 0 -62 22t-27 57q-4 46 -19 78t-50 32q-27 0 -42 -16t-18 -43q-4 -34 -26.5 -57t-60.5 -23q-36 0 -64 20
t-30 60q-2 29 -17 44t-41 15q-32 0 -46.5 -23.5t-16.5 -67.5q-2 -59 -38 -87.5t-88 -28.5q-58 0 -90.5 34t-32.5 82q0 87 24 150.5t63 105t89.5 62t103.5 20.5q54 0 101.5 -25t79.5 -64q36 38 82.5 63.5t106.5 25.5q36 0 71.5 -10.5t65.5 -31.5t52 -51.5t31 -70.5
q18 22 39 60t30 75z" />
    <glyph glyph-name="maichattawathai.alt4" 
d="M-164 2543q0 -32 -12 -58t-33 -44.5t-48.5 -29t-58.5 -10.5t-58.5 10.5t-48 29t-32.5 44.5t-12 58v83h-147q-25 0 -45.5 9.5t-35 26t-22.5 38.5t-8 47t8 47t22.5 38.5t35 26t45.5 9.5h147v83q0 31 12 57.5t33 45t48.5 29t58.5 10.5t58.5 -10.5t48 -29t32.5 -45t12 -57.5
v-83h147q25 0 45.5 -9.5t35 -26t22.5 -38.5t8 -47t-8 -47t-22.5 -38.5t-35 -26t-45.5 -9.5h-147v-83z" />
    <glyph glyph-name="maiekthai.alt5" 
d="M-697 2548q0 -32 -12 -59t-33 -46.5t-49.5 -30t-60.5 -10.5t-60.5 10.5t-49.5 30t-33.5 46.5t-12.5 59v249q0 32 12.5 59t33.5 46.5t49.5 30t60.5 10.5t60.5 -10.5t49.5 -30t33 -46.5t12 -59v-249z" />
    <glyph glyph-name="maithothai.alt5" 
d="M-442 2739q-29 -68 -83 -126.5t-133 -102t-182.5 -68.5t-232.5 -25h-108q-26 0 -48.5 10t-39.5 27t-27 39.5t-10 48.5v125h-61q-26 0 -48.5 10t-39.5 27t-27 39.5t-10 48.5t10 48.5t27 39.5t39.5 27t48.5 10h202q26 0 48.5 -10t39.5 -27t27 -39.5t10 -48.5v-125
q67 1 122 15t97 38t70.5 56.5t42.5 70.5q11 27 31.5 47t46 31t54 11.5t56.5 -10.5t48 -31.5t30.5 -46t11 -54t-11.5 -55.5z" />
    <glyph glyph-name="maitrithai.alt5" 
d="M-602 2824q7 26 23.5 46t38 32.5t48 16.5t53.5 -2q32 -8 54 -24t33.5 -37t13.5 -46.5t-6 -50.5q-19 -61 -51 -118.5t-74 -104t-91.5 -78t-103.5 -41.5h-108q-38 0 -62 22t-27 57q-4 46 -19 78t-50 32q-27 0 -42 -16t-18 -43q-4 -34 -27 -57t-61 -23q-18 0 -34.5 6
t-29 16.5t-20.5 25t-9 32.5q-2 29 -17 44t-41 15q-32 0 -46.5 -23.5t-16.5 -67.5q-2 -59 -38 -87.5t-88 -28.5q-58 0 -90.5 34t-32.5 82q0 87 24 150.5t63 105t89.5 62t103.5 20.5q54 0 101.5 -25t79.5 -64q36 38 82.5 63.5t106.5 25.5q36 0 71.5 -10.5t65.5 -31.5t52 -51.5
t31 -70.5q18 22 39 60t30 75z" />
    <glyph glyph-name="maichattawathai.alt5" 
d="M-705 2543q0 -32 -12 -58t-33 -44.5t-48.5 -29t-58.5 -10.5t-58.5 10.5t-48 29t-32.5 44.5t-12 58v83h-147q-25 0 -45.5 9.5t-35 26t-22.5 38.5t-8 47t8 47t22.5 38.5t35 26t45.5 9.5h147v83q0 31 12 57.5t33 45t48.5 29t58.5 10.5t58.5 -10.5t48 -29t32.5 -45t12 -57.5
v-83h147q25 0 45.5 -9.5t35 -26t22.5 -38.5t8 -47t-8 -47t-22.5 -38.5t-35 -26t-45.5 -9.5h-147v-83z" />
    <glyph glyph-name="sarauthai.alt6" 
d="M-492 -701q0 -33 -12.5 -60t-33.5 -46.5t-49.5 -30.5t-61.5 -11t-61.5 11t-50 30.5t-34 46.5t-12.5 60v250h-68q-27 0 -48.5 10t-37.5 27.5t-24.5 41t-8.5 50.5t8.5 50.5t24.5 41t37.5 27.5t48.5 10h264q27 0 48.5 -10t37.5 -27.5t24.5 -41t8.5 -50.5v-379z" />
    <glyph glyph-name="sarauuthai.alt6" 
d="M-585 -320q0 33 12.5 60t34 46.5t50 30t61.5 10.5t61.5 -10.5t49.5 -30t33.5 -46.5t12.5 -60v-102q0 -87 -23.5 -164.5t-77.5 -135.5t-140.5 -92t-212.5 -34q-119 0 -203.5 28.5t-140 81t-83.5 125.5t-32 162h-64q-27 0 -48.5 10t-37.5 27.5t-24.5 41t-8.5 50.5t8.5 50.5
t24.5 41t37.5 27.5t48.5 10h264q27 0 48.5 -10t37.5 -27.5t24.5 -41t8.5 -50.5v-100q0 -80 34 -122t106 -42q68 0 103.5 42t35.5 122v102z" />
    <glyph glyph-name="phinthuthai.alt6" 
d="M-946 -369q0 48 18 89.5t49 73t72.5 49.5t89.5 18q46 0 87 -18t71.5 -49.5t48.5 -73t18 -89.5q0 -46 -18 -87t-48.5 -71.5t-71.5 -48.5t-87 -18q-48 0 -89.5 18t-72.5 48.5t-49 71.5t-18 87z" />
    <glyph glyph-name="sarauthai.alt7" 
d="M-452 -701q0 -33 -12.5 -60t-33.5 -46.5t-49.5 -30.5t-61.5 -11t-61.5 11t-50 30.5t-34 46.5t-12.5 60v250h-68q-27 0 -48.5 10t-37.5 27.5t-24.5 41t-8.5 50.5t8.5 50.5t24.5 41t37.5 27.5t48.5 10h264q27 0 48.5 -10t37.5 -27.5t24.5 -41t8.5 -50.5v-379z" />
    <glyph glyph-name="sarauuthai.alt7" 
d="M-790 -320q0 33 12.5 60t34 46.5t50 30t61.5 10.5t61.5 -10.5t49.5 -30t33.5 -46.5t12.5 -60v-102q0 -87 -23.5 -164.5t-77.5 -135.5t-140.5 -92t-212.5 -34q-119 0 -203.5 28.5t-140 81t-83.5 125.5t-32 162h-64q-27 0 -48.5 10t-37.5 27.5t-24.5 41t-8.5 50.5t8.5 50.5
t24.5 41t37.5 27.5t48.5 10h264q27 0 48.5 -10t37.5 -27.5t24.5 -41t8.5 -50.5v-100q0 -80 34 -122t106 -42q68 0 103.5 42t35.5 122v102z" />
    <glyph glyph-name="phinthuthai.alt7" 
d="M-881 -369q0 48 18 89.5t49.5 73t73 49.5t89.5 18q46 0 87 -18t71.5 -49.5t48.5 -73t18 -89.5q0 -46 -18 -87t-48.5 -71.5t-71.5 -48.5t-87 -18q-48 0 -89.5 18t-73 48.5t-49.5 71.5t-18 87z" />
    <glyph glyph-name="maihanakatthai.alt8" 
d="M-1118 1937q-32 0 -60.5 10.5t-49.5 30t-33 46.5t-12 59v143q0 32 12 59t33 46.5t49.5 30t60.5 10.5t60.5 -10.5t49.5 -30t33.5 -46.5t12.5 -59v-31h1198q27 0 49.5 -10t38 -27.5t24.5 -41t9 -50.5t-9 -50.5t-24.5 -41t-38 -27.5t-49.5 -10h-1354z" />
    <glyph glyph-name="maiekthai.alt8" 
d="M-672 2752q0 -32 -12 -59t-33 -46.5t-49.5 -30t-60.5 -10.5t-60.5 10.5t-49.5 30t-33.5 46.5t-12.5 59v249q0 32 12.5 59t33.5 46.5t49.5 30t60.5 10.5t60.5 -10.5t49.5 -30t33 -46.5t12 -59v-249z" />
    <glyph glyph-name="maithothai.alt8" 
d="M-389 2943q-29 -68 -83 -126.5t-133 -102t-182.5 -68.5t-232.5 -25h-108q-26 0 -48.5 10t-39.5 27t-27 39.5t-10 48.5v125h-61q-26 0 -48.5 10t-39.5 27t-27 39.5t-10 48.5t10 48.5t27 39.5t39.5 27t48.5 10h202q26 0 48.5 -10t39.5 -27t27 -39.5t10 -48.5v-125
q67 1 122 15t97 38t70.5 56.5t42.5 70.5q11 27 31.5 47t46 31t54 11.5t56.5 -10.5t48 -31.5t30.5 -46t11 -54t-11.5 -55.5z" />
    <glyph glyph-name="maitrithai.alt8" 
d="M-395 3028q7 26 23.5 46t38 32.5t48 16.5t53.5 -2q32 -8 54 -24t33.5 -37t13.5 -46.5t-6 -50.5q-19 -61 -51 -118.5t-74 -104t-91.5 -78t-103.5 -41.5h-108q-38 0 -62 22t-27 57q-4 46 -19 78t-50 32q-27 0 -42 -16t-18 -43q-4 -34 -26.5 -57t-60.5 -23q-36 0 -64 20
t-30 60q-2 29 -17 44t-41 15q-32 0 -46.5 -23.5t-16.5 -67.5q-2 -59 -38 -87.5t-88 -28.5q-58 0 -90.5 34t-32.5 82q0 87 24 150.5t63 105t89.5 62t103.5 20.5q54 0 101.5 -25t79.5 -64q36 38 82.5 63.5t106.5 25.5q36 0 71.5 -10.5t65.5 -31.5t52 -51.5t31 -70.5
q18 22 39 60t30 75z" />
    <glyph glyph-name="maichattawathai.alt8" 
d="M-676 2747q0 -32 -12 -58t-33 -44.5t-48.5 -29t-58.5 -10.5t-58.5 10.5t-48 29t-32.5 44.5t-12 58v83h-147q-25 0 -45.5 9.5t-35 26t-22.5 38.5t-8 47t8 47t22.5 38.5t35 26t45.5 9.5h147v83q0 31 12 57.5t33 45t48.5 29t58.5 10.5t58.5 -10.5t48 -29t32.5 -45t12 -57.5
v-83h147q25 0 45.5 -9.5t35 -26t22.5 -38.5t8 -47t-8 -47t-22.5 -38.5t-35 -26t-45.5 -9.5h-147v-83z" />
    <glyph glyph-name="maihanakatthai.alt9" 
d="M-1078 1937q-32 0 -60.5 10.5t-49.5 30t-33 46.5t-12 59v143q0 32 12 59t33 46.5t49.5 30t60.5 10.5t60.5 -10.5t49.5 -30t33.5 -46.5t12.5 -59v-31h996q27 0 49.5 -10t38 -27.5t24.5 -41t9 -50.5t-9 -50.5t-24.5 -41t-38 -27.5t-49.5 -10h-1152z" />
    <glyph glyph-name="maithothai.alt9" 
d="M-141 2943q-29 -68 -83 -126.5t-133 -102t-182.5 -68.5t-232.5 -25h-108q-26 0 -48.5 10t-39.5 27t-27 39.5t-10 48.5v125h-61q-26 0 -48.5 10t-39.5 27t-27 39.5t-10 48.5t10 48.5t27 39.5t39.5 27t48.5 10h202q26 0 48.5 -10t39.5 -27t27 -39.5t10 -48.5v-125
q67 1 122 15t97 38t70.5 56.5t42.5 70.5q11 27 31.5 47t46 31t54 11.5t56.5 -10.5t48 -31.5t30.5 -46t11 -54t-11.5 -55.5z" />
    <glyph glyph-name="maitrithai.alt9" 
d="M-200 3028q7 26 23.5 46t38 32.5t48 16.5t53.5 -2q32 -8 54 -24t33.5 -37t13.5 -46.5t-6 -50.5q-19 -61 -51 -118.5t-74 -104t-91.5 -78t-103.5 -41.5h-108q-38 0 -62 22t-27 57q-4 46 -19 78t-50 32q-25 0 -41 -16t-19 -43q-4 -34 -26.5 -57t-60.5 -23q-36 0 -64 20
t-30 60q-2 29 -17 44t-41 15q-32 0 -46.5 -23.5t-16.5 -67.5q-2 -59 -38 -87.5t-88 -28.5q-58 0 -90.5 34t-32.5 82q0 87 24 150.5t63 105t89.5 62t103.5 20.5q54 0 100 -25.5t81 -63.5q36 38 82.5 63.5t106.5 25.5q36 0 71.5 -10.5t65.5 -31.5t52 -51.5t31 -70.5
q18 22 39 60t30 75z" />
    <glyph glyph-name="saraithai.alt10" 
d="M-1409 1933q-28 0 -51 10.5t-39.5 28.5t-25.5 42t-9 52t9 52.5t25.5 42.5t39.5 28.5t51 10.5h1149q28 0 51 -10.5t39.5 -28.5t25.5 -42.5t9 -52.5t-9 -52t-25.5 -42t-39.5 -28.5t-51 -10.5h-1149z" />
    <glyph glyph-name="saraiithai.alt10" 
d="M-1409 1933q-28 0 -51 10.5t-39.5 28.5t-25.5 42t-9 52t9 52.5t25.5 42.5t39.5 28.5t51 10.5h934v107q0 33 12.5 60.5t34.5 47.5t51 31t62 11t62 -11t50.5 -31t34 -47.5t12.5 -60.5v-224q0 -33 -12.5 -60.5t-34 -47.5t-50.5 -31t-62 -11h-1094z" />
    <glyph glyph-name="sarauethai.alt10" 
d="M-1409 1933q-28 0 -51 10.5t-39.5 28.5t-25.5 42t-9 52t9 52.5t25.5 42.5t39.5 28.5t51 10.5h700v28q0 61 23 115t63 94t93.5 63t115.5 23q61 0 115 -23t94 -63t63 -94t23 -115q0 -62 -23 -115.5t-63 -93.5t-94 -63t-115 -23h-995zM-520 2228q0 -21 8.5 -40t23 -32.5
t34 -21.5t40.5 -8q22 0 41.5 8t34 21.5t23 32.5t8.5 40q0 23 -8.5 42.5t-23 34t-34 22.5t-41.5 8q-21 0 -40.5 -8t-34 -22.5t-23 -34t-8.5 -42.5z" />
    <glyph glyph-name="saraueethai.alt10" 
d="M-1409 1933q-28 0 -51 10.5t-39.5 28.5t-25.5 42t-9 52t9 52.5t25.5 42.5t39.5 28.5t51 10.5h496v115q0 31 12 57.5t33 45t48.5 29t58.5 10.5t58.5 -10.5t48 -29t32.5 -45t12 -57.5v-115h151v115q0 31 12 57.5t33 45t48.5 29t58.5 10.5t58.5 -10.5t48 -29t32.5 -45
t12 -57.5v-240q0 -32 -12 -58t-32.5 -44.5t-48 -29t-58.5 -10.5h-1102z" />
    <glyph glyph-name="maiekupperleftthai.alt11" 
d="M-775 2772q0 -32 -12 -59t-33 -46.5t-49.5 -30t-60.5 -10.5t-60.5 10.5t-49.5 30t-33.5 46.5t-12.5 59v249q0 32 12.5 59t33.5 46.5t49.5 30t60.5 10.5t60.5 -10.5t49.5 -30t33 -46.5t12 -59v-249z" />
    <glyph glyph-name="maichattawaupperleftthai.alt11" 
d="M-774 2767q0 -32 -12 -58t-33 -44.5t-48.5 -29t-58.5 -10.5t-58.5 10.5t-48 29t-32.5 44.5t-12 58v83h-147q-25 0 -45.5 9.5t-35 26t-22.5 38.5t-8 47t8 47t22.5 38.5t35 26t45.5 9.5h147v83q0 31 12 57.5t33 45t48.5 29t58.5 10.5t58.5 -10.5t48 -29t32.5 -45t12 -57.5
v-83h147q25 0 45.5 -9.5t35 -26t22.5 -38.5t8 -47t-8 -47t-22.5 -38.5t-35 -26t-45.5 -9.5h-147v-83z" />
    </font>
</defs>
</svg>
